<?xml version="1.0" standalone="no"?>
<!DOCTYPE svg PUBLIC "-//W3C//DTD SVG 1.1//EN" "http://www.w3.org/Graphics/SVG/1.1/DTD/svg11.dtd" >
<svg xmlns="http://www.w3.org/2000/svg" xmlns:xlink="http://www.w3.org/1999/xlink" version="1.1">
<metadata>
Created by FontForge 20170731 at Fri Apr 18 02:37:53 2014
 By Aleksey,,,
Copyright (c) 2014 by Intelligent Design - Kostas Bartsokas. All rights reserved.
</metadata>
<defs>
<font id="ZonaPro" horiz-adv-x="737" >
  <font-face 
    font-family="Zona Pro "
    font-weight="325"
    font-stretch="normal"
    units-per-em="1000"
    panose-1="2 1 5 3 4 0 2 2 0 4"
    ascent="825"
    descent="-175"
    x-height="541"
    cap-height="705"
    bbox="-255 -268 1239 993"
    underline-thickness="20"
    underline-position="-173"
    unicode-range="U+0020-FB04"
  />
<missing-glyph horiz-adv-x="500" 
 />
    <glyph glyph-name="f_igrave" unicode="f&#xec;" horiz-adv-x="600" 
d="M326 705q-66 0 -98 -33t-32 -88v-43h326v-541h-84v472h-242v-496q0 -78 -44 -120.5t-112 -42.5q-29 0 -61 6v67q8 -1 29 -1q53 0 79 30t26 95v462h-91v69h91v36q0 47 16 81.5t40 53.5t60 30t66.5 14t68.5 3l151 -169h-60z" />
    <glyph glyph-name="f_f" unicode="ff" horiz-adv-x="751" 
d="M747 744v-63q-40 7 -74 7q-63 0 -85.5 -26.5t-22.5 -88.5v-32h174v-69h-174v-479q0 -85 -49.5 -123.5t-127.5 -38.5l-40 4v68q18 -2 29 -2q105 0 105 126v445h-286v-496q0 -80 -46.5 -121.5t-118.5 -41.5l-52 5v67q4 0 13.5 -0.5t15.5 -0.5q105 0 105 126v462h-91v69h91
v28q0 165 164 165q55 0 100 -14v-63q-46 8 -86 8q-52 0 -73.5 -24t-21.5 -77v-23h286v44q0 98 44 135.5t120 37.5q48 0 101 -14z" />
    <glyph glyph-name="f_i" unicode="fi" horiz-adv-x="600" 
d="M196 567v-26h326v-541h-84v472h-242v-496q0 -78 -44 -120.5t-112 -42.5q-29 0 -61 6v67q8 -1 29 -1q53 0 79 30t26 95v462h-91v69h91v39q0 54 18 92t47.5 55.5t57 24.5t57.5 7q56 0 84 -10v-63q-37 7 -74 7q-62 0 -84.5 -32t-22.5 -94zM480 631q-22 0 -37 15t-15 37
t15 36.5t37 14.5t37 -14.5t15 -36.5t-15 -37t-37 -15z" />
    <glyph glyph-name="f_l" unicode="fl" horiz-adv-x="619" 
d="M330 760q98 0 155 -53.5t57 -143.5v-563h-84v543q0 148 -128 148q-74 0 -104 -35t-30 -115h173v-69h-173v-496q0 -82 -48 -122t-122 -40q-10 0 -27 2t-20 2v67q4 0 13.5 -0.5t15.5 -0.5q105 0 105 126v462h-91v69h91q0 219 217 219z" />
    <glyph glyph-name="f_f_i" unicode="ffi" horiz-adv-x="977" 
d="M857 631q-22 0 -37 15t-15 37t15 36.5t37 14.5t37 -14.5t15 -36.5t-15 -37t-37 -15zM565 565v-24h334v-541h-84v472h-250v-479q0 -78 -44 -120t-112 -42q-34 0 -61 5v67q9 -1 29 -1q53 0 79 30t26 95v445h-286v-496q0 -78 -44 -120.5t-112 -42.5q-29 0 -61 6v67
q8 -1 29 -1q53 0 79 30t26 95v462h-91v69h91v27q0 166 173 166q49 0 91 -14v-63q-46 8 -86 8q-52 0 -73.5 -24.5t-21.5 -78.5v-21h286v38q0 103 46.5 141t126.5 38q47 0 92 -14v-63q-40 7 -74 7q-64 0 -86 -29.5t-22 -93.5z" />
    <glyph glyph-name="f_f_l" unicode="ffl" horiz-adv-x="989" 
d="M699 759q88 0 150 -49.5t62 -146.5v-563h-84v543q0 75 -34.5 111t-93.5 36q-60 0 -97 -31t-37 -95v-23h173v-69h-173v-479q0 -78 -44 -120.5t-112 -42.5l-61 5v68q18 -2 29 -2q105 0 105 126v445h-286v-496q0 -78 -44 -120.5t-112 -42.5l-61 5v67q4 0 13.5 -0.5
t15.5 -0.5q105 0 105 126v462h-91v69h91v32q0 78 43.5 120.5t111.5 42.5q61 0 109 -16v-63q-46 8 -86 8q-45 0 -70 -24t-25 -71v-29h286v24q0 90 58 142t159 52z" />
    <glyph glyph-name=".notdef" horiz-adv-x="500" 
 />
    <glyph glyph-name=".null" horiz-adv-x="0" 
 />
    <glyph glyph-name="nonmarkingreturn" horiz-adv-x="333" 
 />
    <glyph glyph-name="space" unicode=" " horiz-adv-x="322" 
 />
    <glyph glyph-name="exclam" unicode="!" horiz-adv-x="227" 
d="M142 202h-56l-15 502h86zM115 98q22 0 37 -15t15 -37t-15 -37t-37 -15t-37 15t-15 37t15 37t37 15z" />
    <glyph glyph-name="quotedbl" unicode="&#x22;" horiz-adv-x="348" 
d="M206 417l18 283h91l-64 -283h-45zM35 417l18 283h91l-64 -283h-45z" />
    <glyph glyph-name="numbersign" unicode="#" horiz-adv-x="680" 
d="M455 525l27 161h63l-27 -161h133v-69h-144l-34 -198h145v-69h-157l-32 -186h-63l31 186h-180l-31 -186h-64l32 186h-124v69h135l34 198h-137v69h149l27 161h64l-28 -161h181zM409 258l34 198h-180l-34 -198h180z" />
    <glyph glyph-name="dollar" unicode="$" horiz-adv-x="641" 
d="M347 635v-245q59 -14 99 -28.5t76 -37t54 -55.5t18 -77q0 -90 -67 -143t-180 -57v-63h-45v63q-73 2 -123.5 14.5t-125.5 50.5l33 66q64 -31 109 -43t107 -14v253q-57 14 -95.5 28t-74.5 36.5t-54 55.5t-18 77q0 85 65.5 139.5t176.5 56.5v40h45v-41q126 -9 218 -54
l-36 -68q-73 37 -182 46zM147 521q0 -46 39.5 -72t115.5 -47v236q-72 -1 -113.5 -33.5t-41.5 -83.5zM507 186q0 49 -40 75t-120 47v-242q74 2 117 33.5t43 86.5z" />
    <glyph glyph-name="percent" unicode="%" horiz-adv-x="899" 
d="M397 516q0 -89 -50.5 -142t-126.5 -53q-75 0 -125.5 53t-50.5 142q0 90 50.5 142.5t125.5 52.5q76 0 126.5 -52.5t50.5 -142.5zM102 516q0 -62 34 -100t84 -38q51 0 85 38t34 100q0 63 -34 100.5t-85 37.5q-50 0 -84 -37.5t-34 -100.5zM679 383q75 0 125.5 -52.5
t50.5 -141.5q0 -90 -50.5 -142.5t-125.5 -52.5q-76 0 -126.5 52.5t-50.5 142.5t50.5 142t126.5 52zM679 51q50 0 84 38t34 100t-34 100t-84 38q-51 0 -85 -38t-34 -100t34 -100t85 -38zM659 701h64l-483 -701h-64z" />
    <glyph glyph-name="ampersand" unicode="&#x26;" horiz-adv-x="683" 
d="M594 319l61 -21q-71 -113 -120 -168l92 -88l-51 -47l-88 86q-102 -86 -201 -86q-115 0 -179 52t-64 134q0 124 156 188q-42 43 -62 80.5t-20 84.5q0 76 51.5 125.5t130.5 49.5q88 0 137.5 -50t49.5 -121q0 -59 -41.5 -110.5t-129.5 -83.5l172 -168q48 50 106 143z
M300 647q-48 0 -79 -34.5t-31 -80.5q0 -29 13.5 -57t26 -42.5t41.5 -43.5q146 52 146 144q0 47 -30.5 80.5t-86.5 33.5zM287 62q79 0 155 66l-195 190q-120 -48 -120 -134q0 -51 41 -86.5t119 -35.5z" />
    <glyph glyph-name="quotesingle" unicode="'" horiz-adv-x="207" 
d="M51 417l17 283h93l-64 -283h-46z" />
    <glyph glyph-name="parenleft" unicode="(" horiz-adv-x="400" 
d="M135 302q0 -119 61 -213t171 -156l-28 -49q-134 69 -209 175t-75 243t75 243.5t209 175.5l28 -49q-110 -62 -171 -156.5t-61 -213.5z" />
    <glyph glyph-name="parenright" unicode=")" horiz-adv-x="400" 
d="M265 302q0 119 -61 213.5t-171 156.5l29 49q134 -69 208.5 -175.5t74.5 -243.5t-74.5 -243t-208.5 -175l-29 49q111 62 171.5 156t60.5 213z" />
    <glyph glyph-name="asterisk" unicode="*" horiz-adv-x="413" 
d="M371 458l-25 -42l-120 76l6 -142h-48l6 142l-121 -76l-23 42l126 65l-127 66l24 42l121 -77l-6 143h48l-6 -143l120 77l24 -42l-126 -66z" />
    <glyph glyph-name="plus" unicode="+" horiz-adv-x="640" 
d="M571 406v-69h-216v-215h-68v215h-216v69h216v215h68v-215h216z" />
    <glyph glyph-name="comma" unicode="," horiz-adv-x="191" 
d="M93 98q19 0 36 -14.5t17 -51.5q0 -79 -42 -118.5t-88 -40.5l-13 36q27 4 54 26.5t30 59.5q-19 2 -32 16.5t-13 35.5t15.5 36t35.5 15z" />
    <glyph glyph-name="hyphen" unicode="-" horiz-adv-x="408" 
d="M362 367v-70h-316v70h316z" />
    <glyph glyph-name="period" unicode="." horiz-adv-x="184" 
d="M143 46q0 -22 -15 -37t-37 -15t-37 15t-15 37t15 37t37 15t37 -15t15 -37z" />
    <glyph glyph-name="slash" unicode="/" horiz-adv-x="460" 
d="M-30 -128l443 926h72l-443 -926h-72z" />
    <glyph glyph-name="zero" unicode="0" horiz-adv-x="730" 
d="M366 710q137 0 228.5 -97t91.5 -261t-91.5 -261t-228.5 -97q-136 0 -228 97t-92 261t92 261t228 97zM366 636q-101 0 -169 -77t-68 -207t68 -207t169 -77t169 77t68 207t-68 207t-169 77z" />
    <glyph glyph-name="one" unicode="1" horiz-adv-x="392" 
d="M236 705h47v-705h-86v624l-151 -34l-17 69z" />
    <glyph glyph-name="two" unicode="2" horiz-adv-x="624" 
d="M199 73h376v-73h-529v35q42 54 105.5 98.5t120 73.5t108.5 60.5t82.5 75t30.5 101.5q0 79 -55 134t-130 55q-74 0 -129.5 -52.5t-56.5 -135.5v-11h-76v16q0 111 77.5 186t185.5 75q106 0 184.5 -76t78.5 -186q0 -64 -24.5 -114.5t-68 -86t-88 -61.5t-102 -57t-90.5 -57z
" />
    <glyph glyph-name="three" unicode="3" horiz-adv-x="615" 
d="M559 664l-198 -247q97 -9 156 -63.5t59 -136.5q0 -104 -76 -164t-202 -60q-79 0 -133 9.5t-114 36.5l32 67q92 -39 217 -39q87 0 140 40.5t53 108.5q0 58 -48.5 102t-148.5 45h-34l-16 35l189 234h-364v73h488v-41z" />
    <glyph glyph-name="four" unicode="4" horiz-adv-x="659" 
d="M516 251h107v-72h-107v-179h-84v179h-384l-17 40l420 486h65v-454zM153 251h279v324z" />
    <glyph glyph-name="five" unicode="5" horiz-adv-x="619" 
d="M339 454q113 0 176.5 -63.5t63.5 -173.5q0 -104 -76 -164t-202 -60q-80 0 -135 9t-114 34l30 67q91 -36 221 -36q87 0 140 42t53 113q0 70 -45.5 114.5t-133.5 44.5q-46 0 -106 -9t-89 -19l-38 22l4 330h459v-74h-385l-1 -206q87 29 178 29z" />
    <glyph glyph-name="six" unicode="6" horiz-adv-x="664" 
d="M342 455q115 0 195.5 -58.5t80.5 -166.5q0 -107 -81.5 -171.5t-203.5 -64.5q-116 0 -196 86.5t-80 218.5q0 213 81.5 312.5t212.5 99.5q123 0 231 -73l-38 -66q-93 65 -189 65q-101 0 -160 -73t-59 -206q25 42 82 69.5t124 27.5zM340 381q-80 0 -136.5 -39.5
t-56.5 -107.5q0 -59 56.5 -111.5t129.5 -52.5q95 0 148 44.5t53 116.5q0 71 -55 110.5t-139 39.5z" />
    <glyph glyph-name="seven" unicode="7" horiz-adv-x="585" 
d="M49 705h503v-41l-339 -664h-93l324 632h-395v73z" />
    <glyph glyph-name="eight" unicode="8" horiz-adv-x="634" 
d="M319 711q104 0 170.5 -46t66.5 -135q0 -52 -30.5 -92t-77.5 -55q65 -16 106.5 -65.5t41.5 -116.5q0 -99 -78.5 -153t-198.5 -54q-121 0 -199 54t-78 153q0 67 41.5 117t106.5 65q-47 14 -77.5 54.5t-30.5 92.5q0 89 66.5 135t170.5 46zM319 639q-71 0 -116 -27.5
t-45 -83.5q0 -49 45 -80.5t116 -31.5t116 31.5t45 80.5q0 56 -45 83.5t-116 27.5zM319 68q85 0 139.5 35t54.5 100q0 59 -54.5 97.5t-139.5 38.5t-140 -38.5t-55 -97.5q0 -65 55 -100t140 -35z" />
    <glyph glyph-name="nine" unicode="9" horiz-adv-x="663" 
d="M326 250q-114 0 -194.5 58.5t-80.5 166.5q0 107 79 171.5t200 64.5q118 0 199.5 -86.5t81.5 -218.5q0 -213 -81.5 -312.5t-212.5 -99.5q-123 0 -231 73l38 63q89 -62 189 -62q99 0 156 72t63 207q-25 -42 -82 -69.5t-124 -27.5zM328 324q78 0 135.5 42t57.5 105
q0 59 -57 113t-129 54q-95 0 -148 -46t-53 -118q0 -73 55 -111.5t139 -38.5z" />
    <glyph glyph-name="colon" unicode=":" horiz-adv-x="221" 
d="M108 436q-22 0 -37 14.5t-15 36.5t15 37t37 15t37 -15t15 -37t-15 -36.5t-37 -14.5zM108 98q22 0 37 -15t15 -37t-15 -37t-37 -15t-37 15t-15 37t15 37t37 15z" />
    <glyph glyph-name="semicolon" unicode=";" horiz-adv-x="219" 
d="M108 436q-22 0 -37 14.5t-15 36.5t15 37t37 15q21 0 36.5 -15t15.5 -37q0 -21 -15.5 -36t-36.5 -15zM107 98q25 0 39 -16.5t14 -47.5q0 -71 -34 -115.5t-96 -45.5l-12 36q32 3 57 27.5t26 58.5q-19 2 -32 17t-13 34q0 22 15 37t36 15z" />
    <glyph glyph-name="less" unicode="&#x3c;" horiz-adv-x="618" 
d="M543 607v-78l-373 -180l373 -179v-78l-484 237v41z" />
    <glyph glyph-name="equal" unicode="=" horiz-adv-x="626" 
d="M73 167v70h478v-70h-478zM73 526h478v-70h-478v70z" />
    <glyph glyph-name="greater" unicode="&#x3e;" horiz-adv-x="619" 
d="M82 92v78l372 179l-372 180v78l484 -237v-41z" />
    <glyph glyph-name="question" unicode="?" horiz-adv-x="540" 
d="M241 711q118 0 188 -60.5t70 -166.5q0 -81 -62.5 -134t-171.5 -53l-5 -109h-60l-5 144l9 20h28q91 0 141.5 36.5t50.5 96.5q0 71 -50.5 112.5t-130.5 41.5q-116 0 -203 -44l-29 65q56 30 105.5 40.5t124.5 10.5zM228 98q22 0 37.5 -15t15.5 -37t-15.5 -37t-37.5 -15
q-21 0 -36 15t-15 37t15 37t36 15z" />
    <glyph glyph-name="at" unicode="@" horiz-adv-x="965" 
d="M486 724q182 0 310.5 -128t128.5 -309q0 -98 -62.5 -167t-153.5 -69q-60 0 -91 28t-31 79v7q-23 -46 -72.5 -74t-102.5 -28q-85 0 -138.5 60.5t-53.5 146.5q0 104 68.5 183t162.5 79q57 0 100 -30.5t62 -81.5l14 92l70 -11q-46 -302 -46 -307q0 -97 75 -97
q70 0 113.5 57.5t43.5 131.5q0 164 -115.5 279.5t-281.5 115.5t-281.5 -115.5t-115.5 -280.5q0 -164 116 -280.5t281 -116.5q156 0 262 91q9 -9 14.5 -15t8 -8.5l3.5 -3.5q-123 -107 -288 -107q-182 0 -311 129t-129 311t129 310.5t311 128.5zM588 324q0 58 -37 97.5
t-92 39.5q-65 0 -114.5 -54t-49.5 -129q0 -60 37 -102t92 -42q65 0 114 56t50 134z" />
    <glyph glyph-name="A" unicode="A" 
d="M629 0l-79 177h-363l-78 -177h-90l326 705h47l327 -705h-90zM368 588l-150 -341h301z" />
    <glyph glyph-name="B" unicode="B" horiz-adv-x="701" 
d="M519 562q0 -75 -52 -114q86 -9 138 -74t52 -151q0 -93 -56.5 -158t-156.5 -65h-359v705h278q65 0 110.5 -41t45.5 -102zM168 632v-176h192q41 0 61.5 27t20.5 60q0 38 -30 63.5t-76 25.5h-168zM169 73h235q80 0 122 45t42 113q0 65 -43 112.5t-120 47.5h-236v-318z" />
    <glyph glyph-name="C" unicode="C" horiz-adv-x="756" 
d="M423 74q67 0 125 29t97 80l66 -55q-52 -63 -127 -98.5t-161 -35.5q-154 0 -262.5 105t-108.5 253t108.5 253.5t262.5 105.5q85 0 160.5 -36t127.5 -99l-66 -55q-39 51 -97 80.5t-125 29.5q-118 0 -200.5 -80.5t-82.5 -198.5t82.5 -198t200.5 -80z" />
    <glyph glyph-name="D" unicode="D" 
d="M685 352q0 -142 -97.5 -247t-234.5 -105h-268v705h245q147 0 251 -103.5t104 -249.5zM168 77h178q104 0 179 82.5t75 192.5q0 115 -79 195.5t-191 80.5h-162v-551z" />
    <glyph glyph-name="E" unicode="E" horiz-adv-x="644" 
d="M168 73h427v-73h-510v705h489v-73h-406v-254h344v-72h-344v-233z" />
    <glyph glyph-name="F" unicode="F" horiz-adv-x="628" 
d="M584 632h-416v-313h361v-73h-361v-246h-83v705h499v-73z" />
    <glyph glyph-name="G" unicode="G" horiz-adv-x="791" 
d="M408 338h322v-241q-128 -103 -305 -103q-154 0 -263.5 105t-109.5 253t109.5 253t263.5 105q170 0 279 -101l-54 -59q-89 81 -225 81q-118 0 -202 -81.5t-84 -197.5q0 -118 83.5 -200t202.5 -82q126 0 219 69v128h-236v71z" />
    <glyph glyph-name="H" unicode="H" 
d="M568 705h84v-705h-84v271h-400v-271h-83v705h83v-361h400v361z" />
    <glyph glyph-name="I" unicode="I" horiz-adv-x="259" 
d="M173 705v-705h-87v705h87z" />
    <glyph glyph-name="J" unicode="J" horiz-adv-x="594" 
d="M434 705h85v-417q0 -135 -63 -214.5t-187 -79.5q-93 0 -162.5 61t-82.5 152l75 7q12 -62 58 -101.5t110 -39.5q80 0 123.5 53.5t43.5 141.5v437z" />
    <glyph glyph-name="K" unicode="K" horiz-adv-x="698" 
d="M345 361l321 -361h-114l-263 298l-121 -131v-167h-83v705h83v-419l384 419h105z" />
    <glyph glyph-name="L" unicode="L" horiz-adv-x="599" 
d="M171 71h391v-71h-477v705h86v-634z" />
    <glyph glyph-name="M" unicode="M" horiz-adv-x="872" 
d="M742 705h45v-705h-86v510l-265 -416l-265 416v-510h-86v705h45l306 -468z" />
    <glyph glyph-name="N" unicode="N" horiz-adv-x="773" 
d="M603 705h85v-705h-45l-472 544v-544h-86v705h45l473 -544v544z" />
    <glyph glyph-name="O" unicode="O" horiz-adv-x="850" 
d="M424 710q155 0 264 -105t109 -253t-109 -253t-264 -105q-154 0 -263 105t-109 253t109 253t263 105zM424 73q118 0 201.5 81.5t83.5 197.5t-83.5 197.5t-201.5 81.5t-201.5 -82t-83.5 -197t83.5 -197t201.5 -82z" />
    <glyph glyph-name="P" unicode="P" horiz-adv-x="660" 
d="M85 705h279q134 0 196.5 -67.5t62.5 -170.5q0 -129 -76.5 -190t-209.5 -61h-166v-216h-86v705zM171 287h159q97 0 150 44.5t53 130.5q0 74 -43.5 122t-137.5 48h-181v-345z" />
    <glyph glyph-name="Q" unicode="Q" horiz-adv-x="850" 
d="M764 41l-41 -49l-82 69q-97 -67 -217 -67q-154 0 -263 105t-109 253t109 253t263 105t263.5 -105t109.5 -253q0 -145 -108 -248zM424 73q83 0 151 43l-53 45l41 50l59 -51q87 77 87 192q0 116 -83.5 197.5t-201.5 81.5t-201.5 -82t-83.5 -197t83.5 -197t201.5 -82z" />
    <glyph glyph-name="R" unicode="R" horiz-adv-x="684" 
d="M550 0l-160 218q-30 -2 -47 -2h-172v-216h-86v705h289q135 0 197 -67t62 -171q0 -183 -157 -232l178 -235h-104zM171 632v-345h169q98 0 151 44.5t53 130.5q0 74 -43.5 122t-137.5 48h-192z" />
    <glyph glyph-name="S" unicode="S" horiz-adv-x="640" 
d="M340 391q60 -14 100.5 -28.5t77 -37t54.5 -55.5t18 -78q0 -93 -71 -146.5t-190 -53.5q-89 0 -143 12t-136 53l32 66q72 -35 122.5 -46t127.5 -11q79 0 125 32t46 88q0 51 -45.5 79t-139.5 50q-50 12 -82.5 21.5t-70 26.5t-58.5 36t-35.5 49t-14.5 68q0 87 67 141t181 54
q142 0 257 -55l-36 -68q-45 22 -107.5 35.5t-114.5 13.5q-75 0 -118 -32t-43 -84q0 -51 48 -78.5t149 -51.5z" />
    <glyph glyph-name="T" unicode="T" horiz-adv-x="660" 
d="M617 705v-73h-242v-632h-87v632h-241v73h570z" />
    <glyph glyph-name="U" unicode="U" horiz-adv-x="755" 
d="M674 705v-422q0 -125 -78.5 -207t-218.5 -82t-217.5 81.5t-77.5 207.5v422h84v-404q0 -106 54.5 -167.5t156.5 -61.5q103 0 158.5 61.5t55.5 167.5v404h83z" />
    <glyph glyph-name="V" unicode="V" horiz-adv-x="760" 
d="M382 141l256 564h94l-328 -705h-43l-328 705h93z" />
    <glyph glyph-name="W" unicode="W" horiz-adv-x="1117" 
d="M1082 705l-271 -705h-39l-217 563l-217 -563h-39l-272 705h92l202 -546l214 546h40l213 -546l202 546h92z" />
    <glyph glyph-name="X" unicode="X" horiz-adv-x="708" 
d="M357 417l222 288h97l-264 -351l267 -354h-99l-223 290l-224 -290h-99l268 354l-264 351h97z" />
    <glyph glyph-name="Y" unicode="Y" horiz-adv-x="671" 
d="M556 705h99l-276 -463v-242h-86v242l-276 463h98l221 -374z" />
    <glyph glyph-name="Z" unicode="Z" horiz-adv-x="664" 
d="M614 705v-38l-443 -594h448v-73h-572v37l443 595h-419v73h543z" />
    <glyph glyph-name="bracketleft" unicode="[" horiz-adv-x="340" 
d="M311 639h-154v-704h154v-62h-225v828h225v-62z" />
    <glyph glyph-name="backslash" unicode="\" horiz-adv-x="452" 
d="M420 -128l-443 926h71l443 -926h-71z" />
    <glyph glyph-name="bracketright" unicode="]" horiz-adv-x="351" 
d="M40 -65h154v704h-154v62h224v-828h-224v62z" />
    <glyph glyph-name="asciicircum" unicode="^" horiz-adv-x="453" 
d="M103 490h-64l168 215h41l168 -215h-65l-124 160z" />
    <glyph glyph-name="underscore" unicode="_" horiz-adv-x="585" 
d="M588 -31v-51h-591v51h591z" />
    <glyph glyph-name="grave" unicode="`" horiz-adv-x="457" 
d="M284 755l-174 157l94 7l139 -164h-59z" />
    <glyph glyph-name="a" unicode="a" horiz-adv-x="669" 
d="M510 541h83v-541h-83v54q-79 -60 -188 -60q-119 0 -197 82t-78 197q0 114 78 196t197 82q110 0 188 -60v50zM510 131v281q-68 65 -175 65q-89 0 -148.5 -60t-59.5 -144t60 -144.5t148 -60.5q107 0 175 63z" />
    <glyph glyph-name="b" unicode="b" horiz-adv-x="670" 
d="M346 551q117 0 198 -79.5t81 -199.5q0 -119 -81 -198.5t-198 -79.5q-110 0 -187 59v-53h-83v754h83v-260q80 57 187 57zM334 68q88 0 148 58.5t60 145.5q0 86 -60 145.5t-148 59.5q-109 0 -175 -63v-281q68 -65 175 -65z" />
    <glyph glyph-name="c" unicode="c" horiz-adv-x="583" 
d="M487 144l54 -50q-79 -100 -202 -100q-122 0 -208.5 81.5t-86.5 196.5q0 116 86.5 197.5t208.5 81.5q125 0 203 -98l-55 -50q-58 74 -148 74q-88 0 -150.5 -60t-62.5 -145q0 -84 62.5 -144t150.5 -60q90 0 148 76z" />
    <glyph glyph-name="d" unicode="d" horiz-adv-x="670" 
d="M512 754h82v-754h-82v52q-77 -58 -188 -58q-116 0 -197.5 79.5t-81.5 198.5q0 120 81.5 199.5t197.5 79.5q107 0 188 -57v260zM336 68q108 0 176 65v281q-68 63 -176 63q-87 0 -147.5 -59.5t-60.5 -145.5q0 -87 60.5 -145.5t147.5 -58.5z" />
    <glyph glyph-name="e" unicode="e" horiz-adv-x="627" 
d="M581 246h-453q10 -78 69.5 -128.5t136.5 -50.5q107 0 172 79l55 -44q-38 -50 -101 -79t-140 -29q-120 0 -197.5 80.5t-77.5 197.5t77.5 198t197.5 81t191 -78.5t71 -204.5zM320 483q-76 0 -128.5 -49t-62.5 -123h372q-6 77 -52.5 124.5t-128.5 47.5z" />
    <glyph glyph-name="f" unicode="f" horiz-adv-x="381" 
d="M377 744v-63q-37 7 -74 7q-63 0 -85 -29.5t-22 -96.5v-21h173v-69h-173v-496q0 -72 -45.5 -117t-113.5 -45q-28 0 -58 4v67q4 0 13.5 -0.5t15.5 -0.5q53 0 79 29t26 97v462h-91v69h91v25q0 92 41 142.5t123 50.5q53 0 100 -15z" />
    <glyph glyph-name="g" unicode="g" horiz-adv-x="670" 
d="M511 541h83v-463q0 -111 -68 -188t-200 -77q-27 0 -48 0.5t-40.5 2.5t-30 3t-29 5.5t-24 6t-28.5 8.5t-30 9l16 62q43 -13 63.5 -18t56 -9.5t77.5 -4.5q92 0 142 47.5t56 117.5q0 2 0.5 8t0.5 9q-80 -54 -185 -54q-116 0 -197 78t-81 195q0 116 81 194t197 78
q109 0 188 -59v49zM127 278q0 -84 60.5 -141t148.5 -57q109 0 175 61v272q-69 64 -175 64q-88 0 -148.5 -58t-60.5 -141z" />
    <glyph glyph-name="h" unicode="h" horiz-adv-x="637" 
d="M340 551q111 0 171.5 -61t60.5 -183v-307h-83v307q0 82 -44.5 126t-117.5 44q-98 0 -168 -60v-417h-83v754h83v-262q70 59 181 59z" />
    <glyph glyph-name="i" unicode="i" horiz-adv-x="240" 
d="M78 0v541h83v-541h-83zM120 631q-22 0 -37.5 15t-15.5 37t15.5 36.5t37.5 14.5q21 0 36 -14.5t15 -36.5t-15 -37t-36 -15z" />
    <glyph glyph-name="j" unicode="j" horiz-adv-x="239" 
d="M77 10v531h84v-565q0 -78 -44 -120.5t-112 -42.5q-29 0 -61 6v67q8 -1 28 -1q53 0 79 29.5t26 95.5zM118 631q-22 0 -37 15t-15 37t15 36.5t37 14.5t37 -14.5t15 -36.5t-15 -37t-37 -15z" />
    <glyph glyph-name="k" unicode="k" horiz-adv-x="609" 
d="M381 333l210 -333h-94l-172 270l-166 -157v-113h-83v754h83v-532l329 319h102z" />
    <glyph glyph-name="l" unicode="l" horiz-adv-x="239" 
d="M77 0v754h84v-754h-84z" />
    <glyph glyph-name="m" unicode="m" horiz-adv-x="993" 
d="M537 415q15 -43 15 -108v-307h-83v307q0 81 -40 125.5t-108 44.5q-96 0 -162 -61v-416h-83v541h83v-52q68 62 175 62q120 0 177 -81q71 81 185 81q111 0 172 -61t61 -183v-307h-83v307q0 82 -44 126t-118 44q-85 0 -147 -62z" />
    <glyph glyph-name="n" unicode="n" horiz-adv-x="638" 
d="M340 551q111 0 171.5 -61t60.5 -183v-307h-83v307q0 82 -44 126t-118 44q-99 0 -168 -61v-416h-83v541h83v-52q70 62 181 62z" />
    <glyph glyph-name="o" unicode="o" horiz-adv-x="677" 
d="M338 551q122 0 208 -82t86 -197t-86.5 -196.5t-207.5 -81.5q-122 0 -208.5 81.5t-86.5 196.5q0 116 86.5 197.5t208.5 81.5zM338 68q88 0 150 60t62 144q0 85 -62 145t-150 60t-150.5 -60t-62.5 -145q0 -84 62.5 -144t150.5 -60z" />
    <glyph glyph-name="p" unicode="p" horiz-adv-x="672" 
d="M346 551q117 0 198 -79.5t81 -198.5q0 -120 -81 -199.5t-198 -79.5q-107 0 -187 57v-226h-83v716h83v-49q77 59 187 59zM334 68q88 0 148 59t60 146q0 86 -60 145t-148 59q-108 0 -175 -65v-281q66 -63 175 -63z" />
    <glyph glyph-name="q" unicode="q" horiz-adv-x="672" 
d="M513 541h83v-716h-83v226q-81 -57 -188 -57q-116 0 -197 80t-81 199t81 198.5t197 79.5q109 0 188 -59v49zM129 273q0 -87 60.5 -146t148.5 -59q106 0 175 63v281q-68 65 -175 65q-88 0 -148.5 -59t-60.5 -145z" />
    <glyph glyph-name="r" unicode="r" horiz-adv-x="435" 
d="M159 541v-106q26 53 71.5 84t106.5 32q33 0 66 -16l-6 -81q-41 16 -77 16q-74 0 -117.5 -57.5t-43.5 -138.5v-274h-83v541h83z" />
    <glyph glyph-name="s" unicode="s" horiz-adv-x="529" 
d="M43 44l31 62q113 -45 199 -45q70 0 103 26t33 64q0 37 -36.5 57t-116.5 36q-99 21 -151 55.5t-52 98.5q0 67 56.5 110t144.5 43q100 0 204 -42l-28 -62q-82 36 -178 36q-55 0 -89.5 -22.5t-34.5 -58.5q0 -34 35.5 -53.5t116.5 -35.5q102 -20 154 -56t52 -102
q0 -71 -54.5 -116t-160.5 -45q-115 0 -228 50z" />
    <glyph glyph-name="t" unicode="t" horiz-adv-x="402" 
d="M378 472h-183v-272q0 -73 25 -103.5t79 -30.5q35 0 77 7v-63q-52 -16 -109 -16q-68 0 -112 42.5t-44 120.5v315h-89v69h89v213h84v-213h183v-69z" />
    <glyph glyph-name="u" unicode="u" horiz-adv-x="645" 
d="M486 541h83v-541h-83v56q-73 -62 -187 -62q-111 0 -171.5 61t-60.5 183v303h82v-303q0 -82 44.5 -126t118.5 -44q104 0 174 61v412z" />
    <glyph glyph-name="v" unicode="v" horiz-adv-x="612" 
d="M501 541h89l-262 -541h-42l-264 541h89l196 -406z" />
    <glyph glyph-name="w" unicode="w" horiz-adv-x="853" 
d="M753 541h83l-207 -541h-43l-159 416l-159 -416h-43l-209 541h84l154 -406l150 406h45l150 -406z" />
    <glyph glyph-name="x" unicode="x" horiz-adv-x="583" 
d="M293 206l-174 -206h-92l218 273l-217 268h96l169 -206l169 206h96l-217 -268l219 -273h-94z" />
    <glyph glyph-name="y" unicode="y" horiz-adv-x="613" 
d="M498 541h86l-227 -570q-17 -41 -47 -72.5t-68 -49t-78.5 -26.5t-83.5 -9q-27 0 -39 1l9 63h13q171 0 218 122h-22l-232 541h88l191 -443h18z" />
    <glyph glyph-name="z" unicode="z" horiz-adv-x="582" 
d="M547 500l-380 -432h376v-68h-501v43l378 429h-361v69h488v-41z" />
    <glyph glyph-name="braceleft" unicode="{" horiz-adv-x="414" 
d="M382 707v-56q-70 0 -100 -22.5t-30 -86.5v-93q0 -80 -17 -118.5t-65 -50.5q48 -11 65 -47.5t17 -115.5v-105q0 -64 30 -86.5t100 -22.5v-56q-38 0 -63.5 2t-52.5 10t-43 22.5t-26.5 40.5t-10.5 63v87q0 44 -0.5 64.5t-5.5 45.5t-13.5 34t-26.5 19t-43 12t-64 2v62
q26 0 45 2t35 4t27 9.5t19 13t13 19t8 23.5t4 31.5t1.5 36.5t0.5 45v74q0 37 10.5 63t26.5 40.5t43.5 22.5t52.5 10t63 2z" />
    <glyph glyph-name="bar" unicode="|" horiz-adv-x="285" 
d="M105 -128v926h66v-926h-66z" />
    <glyph glyph-name="braceright" unicode="}" horiz-adv-x="412" 
d="M35 651v56q38 0 63 -2t52.5 -10t43.5 -22.5t26.5 -40.5t10.5 -63v-74q0 -30 0.5 -45t1.5 -36.5t4 -31.5t8 -23.5t13 -19t19 -13t26.5 -9.5t34.5 -4t45 -2v-62q-39 0 -63.5 -2t-42.5 -12t-26.5 -19t-13.5 -34t-5.5 -45.5t-0.5 -64.5v-87q0 -37 -10.5 -63t-26.5 -40.5
t-43.5 -22.5t-53 -10t-62.5 -2v56q70 0 99.5 22t29.5 87v105q0 80 17 116t66 47q-48 12 -65.5 50.5t-17.5 118.5v93q0 65 -29.5 87t-99.5 22z" />
    <glyph glyph-name="asciitilde" unicode="~" horiz-adv-x="474" 
d="M87 236l-43 5q5 61 34.5 94.5t76.5 33.5q32 0 86.5 -23t76.5 -23q23 0 41.5 19t25.5 53l44 -6q-6 -60 -35 -93.5t-70 -33.5q-31 0 -86.5 23t-75.5 23q-55 0 -75 -72z" />
    <glyph glyph-name="exclamdown" unicode="&#xa1;" horiz-adv-x="233" 
d="M86 502h56l15 -502h-86zM115 606q-22 0 -37 15t-15 37t15 37t37 15t37 -15t15 -37t-15 -37t-37 -15z" />
    <glyph glyph-name="cent" unicode="&#xa2;" horiz-adv-x="575" 
d="M379 569l-83 -410q20 -4 47 -4q83 6 139 75l53 -47q-79 -93 -200 -96q-32 0 -53 5l-18 -92h-59l21 104q-85 30 -138.5 102t-53.5 161q0 123 90 201.5t212 78.5l14 67h58l-15 -76q84 -18 143 -85l-54 -46q-44 50 -103 62zM108 367q0 -64 36.5 -117t95.5 -77l82 408
q-91 -5 -152.5 -66.5t-61.5 -147.5z" />
    <glyph glyph-name="sterling" unicode="&#xa3;" horiz-adv-x="639" 
d="M604 71v-71h-561v41l108 27q-19 136 -25 216h-76v65h72q-3 38 -3 68q0 151 69 222.5t185 71.5q69 0 127.5 -34.5t91.5 -92.5l-57 -46q-24 43 -66.5 69t-93.5 26q-84 0 -127 -54t-43 -149q0 -36 3 -81h286v-65h-281q10 -87 26 -213h365z" />
    <glyph glyph-name="KB" unicode="&#xa4;" horiz-adv-x="973" 
d="M651 619q51 -20 82.5 -66.5t31.5 -102.5q0 -57 -31.5 -103t-82.5 -67q-20 -51 -66.5 -82.5t-102.5 -31.5q-57 0 -103 31.5t-67 82.5q-51 21 -82.5 67t-31.5 103q0 56 31.5 102.5t82.5 66.5q21 51 67 82.5t103 31.5q56 0 102.5 -31.5t66.5 -82.5zM503 294h35q32 0 54.5 23
t22.5 55q0 34 -24 56h-88v-134zM503 471h88q24 22 24 56q0 32 -22.5 55t-54.5 23h-35v-134zM391 363l69 -69v134h-112v-134h43v69zM348 471h112v134l-69 -69v69h-43v-134zM777 75q17 -7 17 -26q0 -11 -7 -19t-20 -8h-47v88h39q26 0 26 -19q0 -10 -8 -16zM690 66
q0 -18 -12 -30.5t-29 -13.5h-33v88h30q18 0 31 -13t13 -31zM159 66q0 -18 -12 -30.5t-30 -13.5h-32v88h30q18 0 31 -13t13 -31zM504 64v46h24v-88h-11l-13 12l-34 33v-45h-24v88h11l13 -13zM437 66v-33q-12 -8 -25 -11q-8 -2 -14 -2q-19 0 -33 13.5t-14 32.5t13.5 32
t33.5 13q21 0 36 -13l-16 -16q-9 7 -20 7q-9 0 -15.5 -6.5t-6.5 -16.5t6.5 -17.5t15.5 -7.5q6 0 14 4v4h-16v17h41zM238 29l9 18q15 -7 30 -7q10 0 10 6v1q0 4 -14 8q-33 7 -33 28q0 12 9 20t24 8t36 -7l-10 -19q-16 6 -26 6q-9 0 -9 -6q0 -5 15 -9q33 -7 33 -27
q0 -29 -36 -29q-20 0 -38 9zM563 61v-20h42v-19h-66v88h64v-20h-40v-12h27v-17h-27zM190 61v-20h42v-19h-66v88h63v-20h-39v-12h26v-17h-26zM833 77l18 32h28l-34 -58v-29h-24v29l-33 58h27zM344 22h-24v88h24v-88zM636 -114q13 -5 13 -20q0 -11 -9 -17q-6 -4 -12 -4h-12v42
h12q6 0 8 -1zM115 43q8 0 14 6.5t6 16.5q0 9 -6 15.5t-14 6.5h-7v-45h7zM647 43q8 0 13.5 6.5t5.5 16.5q0 9 -6 15.5t-14 6.5h-6v-45h7zM906 -144l10 -11h-6l-8 10l-1 -1h-2h-6v-9h-4v42h10q7 0 11 -4q6 -6 6 -12q0 -7 -6 -13zM628 -150q7 0 12 4.5t5 11.5t-5 12t-12 5h-7
v-33h7zM147 -145l10 33h4l-13 -42h-5l-7 29l-2 5q0 -2 -1 -5l-8 -29h-4l-14 42h5l10 -33l1 -4q0 2 1 5l8 32h5l8 -32l1 -5q0 2 1 4zM209 -145l10 33h4l-13 -42h-5l-8 29l-1 5q0 -2 -1 -5l-8 -29h-4l-14 42h5l10 -33l1 -4q0 2 1 5l8 32h4l8 -32l2 -5q0 2 1 4zM87 -145l10 33
h4l-13 -42h-5l-8 29l-1 5q0 -2 -1 -5l-8 -29h-4l-14 42h5l10 -33q0 -4 1 -4q0 2 1 5l8 32h4l8 -32l2 -5q0 2 1 4zM565 -113h4v-42h-4l-23 33q-1 1 -1 2v-1v-34h-5v42h5l21 -31l3 -3v34zM817 -113h4v-42h-4l-23 33v1q-1 1 -1 2v-36h-4v42h4l22 -31l2 -4v35zM287 -113h4v-42
h-4l-22 33q-2 2 -2 3v-36h-4v42h4l22 -31q0 -1 2 -3v34zM478 -142v4h15v-11q-6 -6 -17 -6q-9 0 -15.5 6t-6.5 15t6.5 15.5t15.5 6.5t16 -7l-3 -3q-6 6 -13 6t-12 -5.5t-5 -12.5t5 -12t12 -5q8 0 12 4v5h-10zM765 -142v4h15v-11q-6 -6 -17 -6q-10 0 -16 6t-6 15t6.5 15.5
t15.5 6.5t16 -7l-4 -3q-5 6 -12 6q-17 0 -17 -18q0 -7 5 -12t12 -5q8 0 12 4v5h-10zM743 41h11q15 0 15 11q0 10 -18 10h-8v-21zM864 -142v4h15v-11q-3 -6 -16 -6q-10 0 -16 6t-6 15t6 15.5t15 6.5t16 -7l-3 -3q-5 6 -13 6q-7 0 -12 -5.5t-5 -12.5t5 -12t12 -5q8 0 13 4v5
h-11zM658 -113h25v-4h-21v-18h20v-4h-20v-11h22v-5h-26v42zM502 -113h25v-4h-21v-18h20v-4h-20v-11h22v-5h-26v42zM341 -113h25v-4h-21v-18h20v-4h-20v-11h22v-5h-26v42zM893 -142h6q1 0 2.5 0.5t2.5 0.5q7 3 7 12q0 12 -12 12h-6v-25zM709 -131q10 -5 10 -12q0 -12 -13 -12
q-12 0 -14 9l3 2q2 -7 11 -7q8 0 8 8q0 6 -7 8q-13 6 -13 12q0 11 12 11q6 0 10 -7l-3 -2q-2 5 -7 5q-7 0 -7 -7q0 -5 10 -8zM313 -117h-12v4h30v-4h-13v-38h-5v38zM375 -113h5v-37h19v-5h-24v42zM591 -117h-13v4h30v-4h-13v-38h-4v38zM409 -113h4v-37h20v-5h-24v42zM758 90
h-15v-11h14q7 0 7 5q0 6 -6 6zM728 -113h4v-42h-4v42zM441 -113h4v-42h-4v42zM244 -113h4v-42h-4v42zM225 -152q0 4 4 4q3 0 3 -4q0 -3 -3 -3q-4 0 -4 3zM830 -152q0 4 4 4q3 0 3 -4q0 -3 -3 -3q-4 0 -4 3z" />
    <glyph glyph-name="yen" unicode="&#xa5;" horiz-adv-x="708" 
d="M668 705l-232 -389h159v-59h-193l-9 -20v-22h202v-59h-202v-156h-87v156h-202v59h202v22l-9 20h-193v59h158l-231 389h98l220 -374l220 374h99z" />
    <glyph glyph-name="brokenbar" unicode="&#xa6;" horiz-adv-x="279" 
d="M106 415v383h66v-383h-66zM106 -127v383h66v-383h-66z" />
    <glyph glyph-name="section" unicode="&#xa7;" horiz-adv-x="626" 
d="M544 326q0 -31 -21.5 -58t-46.5 -37q36 -27 36 -78q0 -66 -54 -112t-151 -46q-130 0 -229 49l32 58q48 -23 87 -33t99 -10q65 0 101.5 27t36.5 61q0 29 -31.5 44t-130.5 39q-106 26 -139 44q-63 33 -63 91q0 31 24 59t61 40q-62 34 -62 101q0 69 57.5 108t139.5 39
q100 0 228 -44l-26 -63q-124 42 -203 42q-50 0 -85.5 -23.5t-35.5 -64.5q0 -18 11 -31.5t36.5 -24t46 -16.5t62.5 -16q4 -1 6.5 -1.5t7 -1.5t7.5 -2q45 -11 69.5 -18t53.5 -18.5t43 -24.5t23.5 -33t9.5 -46zM340 405q-95 22 -129 34q-30 -10 -52.5 -29.5t-22.5 -37.5
q0 -19 18.5 -34t51 -25.5t66 -18.5t76 -17.5t68.5 -18.5q19 4 40 22.5t21 43.5q0 27 -29.5 45t-107.5 36z" />
    <glyph glyph-name="dieresis" unicode="&#xa8;" horiz-adv-x="500" 
d="M337 856q18 0 31.5 -13t13.5 -32t-13.5 -32t-31.5 -13q-19 0 -32.5 13t-13.5 32t13.5 32t32.5 13zM164 856q19 0 32 -13t13 -32t-13 -32t-32 -13t-32 13t-13 32t13 32t32 13z" />
    <glyph glyph-name="copyright" unicode="&#xa9;" horiz-adv-x="830" 
d="M417 714q149 0 252.5 -106t103.5 -254q0 -147 -104.5 -253.5t-253.5 -106.5t-253 106t-104 254q0 147 104.5 253.5t254.5 106.5zM740 354q0 135 -93.5 231t-229.5 96q-137 0 -231.5 -96.5t-94.5 -231.5t94 -231t230 -96t230.5 96.5t94.5 231.5zM418 195q73 0 118 61
l41 -34q-60 -78 -159 -78q-85 0 -145 61.5t-60 148.5t60 148t145 61q99 0 159 -78l-41 -34q-45 61 -118 61q-62 0 -106 -46.5t-44 -111.5q0 -66 44 -112.5t106 -46.5z" />
    <glyph glyph-name="ordfeminine" unicode="&#xaa;" horiz-adv-x="489" 
d="M364 693h62v-373h-62v28q-52 -36 -122 -36q-83 0 -137.5 57.5t-54.5 136.5q0 80 54.5 137t137.5 57q67 0 122 -35v28zM364 406v199q-42 39 -113 39q-60 0 -100.5 -40.5t-40.5 -97.5q0 -56 40.5 -97t100.5 -41q67 0 113 38z" />
    <glyph glyph-name="guillemotleft" unicode="&#xab;" horiz-adv-x="552" 
d="M451 9l-174 257l174 257l55 -39l-153 -218l153 -217zM222 9l-174 257l174 257l55 -39l-153 -218l153 -217z" />
    <glyph glyph-name="logicalnot" unicode="&#xac;" horiz-adv-x="594" 
d="M540 472v-238h-72v167h-428v71h500z" />
    <glyph glyph-name="uni00AD" unicode="&#xad;" horiz-adv-x="408" 
d="M362 367v-70h-316v70h316z" />
    <glyph glyph-name="registered" unicode="&#xae;" horiz-adv-x="830" 
d="M417 714q149 0 253 -106.5t104 -253.5t-105 -253.5t-254 -106.5t-253 106.5t-104 253.5t105 253.5t254 106.5zM740 354q0 135 -93.5 231t-229.5 96q-137 0 -231.5 -96.5t-94.5 -231.5t94 -231t230 -96q137 0 231 96.5t94 231.5zM593 180l-39 -36l-112 135q-7 -1 -24 -1
h-97v-124h-55v406h167q78 0 113.5 -38.5t35.5 -97.5q0 -98 -81 -130zM321 513v-192h93q53 0 82 25t29 73q0 41 -23.5 67.5t-75.5 26.5h-105z" />
    <glyph glyph-name="macron" unicode="&#xaf;" horiz-adv-x="500" 
d="M92 782v55h316v-55h-316z" />
    <glyph glyph-name="degree" unicode="&#xb0;" horiz-adv-x="472" 
d="M236 364q-74 0 -128 52.5t-54 125.5q0 72 54.5 125t127.5 53t127.5 -53t54.5 -127q0 -72 -54 -124t-128 -52zM236 412q54 0 93 38t39 91q0 54 -39.5 92.5t-92.5 38.5q-54 0 -93 -38.5t-39 -92.5q0 -53 39 -91t93 -38z" />
    <glyph glyph-name="plusminus" unicode="&#xb1;" horiz-adv-x="640" 
d="M571 466v-69h-216v-215h-68v215h-216v69h216v215h68v-215h216zM571 0h-500v69h500v-69z" />
    <glyph glyph-name="twosuperior" unicode="&#xb2;" horiz-adv-x="415" 
d="M145 347h216v-48h-315v24q19 31 54 57t69 43.5t66 36t52 42.5t20 55q0 45 -32 76.5t-77 31.5t-75 -34q-28 -30 -28 -74v-6h-49v9q0 66 45 110.5t108 44.5q65 0 112 -44.5t47 -110.5q0 -46 -24 -79.5t-54.5 -49.5t-71.5 -39t-63 -45z" />
    <glyph glyph-name="threesuperior" unicode="&#xb3;" horiz-adv-x="415" 
d="M344 680l-116 -143q55 -7 89.5 -36.5t34.5 -76.5q0 -61 -44.5 -96t-118.5 -35q-89 0 -155 30l20 43q61 -26 136 -26q48 0 78.5 22.5t30.5 61.5q0 33 -30.5 54.5t-82.5 21.5h-21l-11 22l108 135h-207v47h289v-24z" />
    <glyph glyph-name="acute" unicode="&#xb4;" horiz-adv-x="500" 
d="M386 912l-174 -157h-58l139 164z" />
    <glyph glyph-name="mu" unicode="&#xb5;" horiz-adv-x="655" 
d="M496 541h82v-541h-82v54q-71 -60 -181 -60q-108 0 -156 85v-250h-83v712h83v-303q0 -82 44.5 -126t117.5 -44q105 0 175 61v412z" />
    <glyph glyph-name="paragraph" unicode="&#xb6;" horiz-adv-x="565" 
d="M277 700h219v-700h-63v625h-69v-625h-63v258h-21q-113 0 -182.5 57.5t-69.5 162.5q0 106 67 164t182 58zM301 338v287h-20q-71 0 -117.5 -37t-46.5 -104q0 -65 47.5 -105.5t114.5 -40.5h22z" />
    <glyph glyph-name="periodcentered" unicode="&#xb7;" horiz-adv-x="203" 
d="M151 313q0 -22 -15 -37t-37 -15t-37 15t-15 37t15 37t37 15t37 -15t15 -37z" />
    <glyph glyph-name="cedilla" unicode="&#xb8;" horiz-adv-x="429" 
d="M167 -76l55 77h53l-28 -57q20 0 34 -15.5t14 -42.5q-3 -30 -28.5 -51.5t-76.5 -21.5l-66 6l1 34q20 -5 46 -5q32 0 49 12.5t17 30.5q0 33 -70 33z" />
    <glyph glyph-name="onesuperior" unicode="&#xb9;" horiz-adv-x="357" 
d="M216 705h23v-406h-54v352l-92 -20l-11 44z" />
    <glyph glyph-name="ordmasculine" unicode="&#xba;" horiz-adv-x="507" 
d="M249 702q85 0 145.5 -57t60.5 -138q0 -80 -60.5 -137t-145.5 -57t-145.5 57t-60.5 137q0 81 60 138t146 57zM249 369q59 0 102 40.5t43 97.5q0 58 -43 98.5t-102 40.5q-60 0 -102.5 -40.5t-42.5 -98.5q0 -57 42.5 -97.5t102.5 -40.5z" />
    <glyph glyph-name="guillemotright" unicode="&#xbb;" horiz-adv-x="550" 
d="M509 266l-174 -257l-54 40l152 217l-152 218l54 39zM281 266l-174 -257l-55 40l153 217l-153 218l55 39z" />
    <glyph glyph-name="onequarter" unicode="&#xbc;" horiz-adv-x="864" 
d="M200 705h24v-406h-55v352l-91 -20l-11 44zM729 143h76v-46h-76v-97h-53v97h-215l-14 31l241 279h41v-264zM676 143v181l-156 -181h156zM621 701h65l-483 -701h-65z" />
    <glyph glyph-name="onehalf" unicode="&#xbd;" horiz-adv-x="912" 
d="M624 48h216v-48h-315v24q19 31 54 57t69 43.5t66 36t52 42.5t20 55q0 45 -32 76.5t-77 31.5q-44 0 -73.5 -32.5t-29.5 -75.5v-6h-49v9q0 66 45 110.5t108 44.5q65 0 112 -44.5t47 -110.5q0 -46 -24 -79.5t-54.5 -49.5t-71.5 -39t-63 -45zM622 701h64l-483 -701h-64z
M200 705h24v-406h-55v352l-91 -20l-11 44z" />
    <glyph glyph-name="threequarters" unicode="&#xbe;" horiz-adv-x="890" 
d="M767 143h77v-46h-77v-97h-53v97h-215l-13 31l240 279h41v-264zM55 704h289v-24l-116 -143q55 -7 89.5 -36.5t34.5 -76.5q0 -61 -44.5 -96t-118.5 -35q-89 0 -155 30l20 43q61 -26 136 -26q48 0 78.5 22.5t30.5 61.5q0 34 -30 55t-83 21h-21l-11 22l108 135h-207v47z
M660 701h64l-483 -701h-64zM714 143v181l-156 -181h156z" />
    <glyph glyph-name="questiondown" unicode="&#xbf;" horiz-adv-x="540" 
d="M299 -7q-118 0 -188 60.5t-70 166.5q0 81 62.5 134t171.5 53l5 109h60l5 -144l-9 -20h-28q-91 0 -141.5 -36.5t-50.5 -96.5q0 -71 50.5 -112.5t130.5 -41.5q116 0 203 44l29 -65q-56 -30 -105.5 -40.5t-124.5 -10.5zM312 606q-22 0 -37.5 15t-15.5 37t15.5 37t37.5 15
q21 0 36 -15t15 -37t-15 -37t-36 -15z" />
    <glyph glyph-name="Agrave" unicode="&#xc0;" 
d="M629 0l-79 177h-363l-78 -177h-90l326 705h47l327 -705h-90zM368 588l-150 -341h301zM340 755l-174 157l94 7l139 -164h-59z" />
    <glyph glyph-name="Aacute" unicode="&#xc1;" 
d="M629 0l-79 177h-363l-78 -177h-90l326 705h47l327 -705h-90zM368 588l-150 -341h301zM574 912l-174 -157h-58l139 164z" />
    <glyph glyph-name="Acircumflex" unicode="&#xc2;" 
d="M629 0l-79 177h-363l-78 -177h-90l326 705h47l327 -705h-90zM368 588l-150 -341h301zM198 755l143 143h54l144 -143h-67l-104 97l-104 -97h-66z" />
    <glyph glyph-name="Atilde" unicode="&#xc3;" 
d="M629 0l-79 177h-363l-78 -177h-90l326 705h47l327 -705h-90zM368 588l-150 -341h301zM221 752l-44 5q5 61 34.5 94.5t76.5 33.5q32 0 86.5 -22.5t76.5 -22.5q23 0 41.5 18.5t25.5 52.5l44 -6q-6 -60 -35.5 -93.5t-69.5 -33.5q-31 0 -86.5 23t-75.5 23q-56 0 -74 -72z" />
    <glyph glyph-name="Adieresis" unicode="&#xc4;" 
d="M629 0l-79 177h-363l-78 -177h-90l326 705h47l327 -705h-90zM368 588l-150 -341h301zM455 856q18 0 31.5 -13t13.5 -32t-13.5 -32t-31.5 -13q-19 0 -32.5 13t-13.5 32t13.5 32t32.5 13zM282 856q19 0 32 -13t13 -32t-13 -32t-32 -13t-32 13t-13 32t13 32t32 13z" />
    <glyph glyph-name="Aring" unicode="&#xc5;" 
d="M271 770q0 39 29 67.5t68 28.5t68 -28.5t29 -67.5q0 -29 -17.5 -53.5t-44.5 -35.5l316 -681h-90l-79 177h-363l-78 -177h-90l314 680q-27 11 -44.5 35.5t-17.5 54.5zM368 588l-150 -341h301zM368 714q23 0 40 16.5t17 40.5q0 23 -17 39.5t-40 16.5t-40 -17t-17 -40
t16.5 -39.5t40.5 -16.5z" />
    <glyph glyph-name="AE" unicode="&#xc6;" horiz-adv-x="1008" 
d="M532 73h427v-73h-510v177h-255l-91 -177h-91l369 705h557v-73h-406v-254h344v-72h-344v-233zM423 626l-196 -379h222v379h-26z" />
    <glyph glyph-name="Ccedilla" unicode="&#xc7;" horiz-adv-x="756" 
d="M344 -76l50 71q-144 11 -243 113.5t-99 243.5q0 148 108.5 253.5t262.5 105.5q85 0 160.5 -36t127.5 -99l-66 -55q-39 51 -97 80.5t-125 29.5q-118 0 -200.5 -80.5t-82.5 -198.5t82.5 -198t200.5 -80q67 0 125 29t97 80l66 -55q-48 -58 -116 -93t-146 -40l-25 -51
q20 0 34 -15.5t14 -42.5q-3 -30 -28.5 -51.5t-76.5 -21.5l-66 6l1 34q20 -5 46 -5q32 0 49 12.5t17 30.5q0 33 -70 33z" />
    <glyph glyph-name="Egrave" unicode="&#xc8;" horiz-adv-x="644" 
d="M168 73h427v-73h-510v705h489v-73h-406v-254h344v-72h-344v-233zM307 755l-174 157l94 7l139 -164h-59z" />
    <glyph glyph-name="Eacute" unicode="&#xc9;" horiz-adv-x="644" 
d="M168 73h427v-73h-510v705h489v-73h-406v-254h344v-72h-344v-233zM539 912l-174 -157h-58l139 164z" />
    <glyph glyph-name="Ecircumflex" unicode="&#xca;" horiz-adv-x="644" 
d="M168 73h427v-73h-510v705h489v-73h-406v-254h344v-72h-344v-233zM164 755l143 143h54l144 -143h-67l-104 97l-104 -97h-66z" />
    <glyph glyph-name="Edieresis" unicode="&#xcb;" horiz-adv-x="644" 
d="M168 73h427v-73h-510v705h489v-73h-406v-254h344v-72h-344v-233zM421 856q18 0 31.5 -13t13.5 -32t-13.5 -32t-31.5 -13q-19 0 -32.5 13t-13.5 32t13.5 32t32.5 13zM248 856q19 0 32 -13t13 -32t-13 -32t-32 -13t-32 13t-13 32t13 32t32 13z" />
    <glyph glyph-name="Igrave" unicode="&#xcc;" horiz-adv-x="259" 
d="M173 705v-705h-87v705h87zM102 768l-174 157l94 7l139 -164h-59z" />
    <glyph glyph-name="Iacute" unicode="&#xcd;" horiz-adv-x="259" 
d="M173 705v-705h-87v705h87zM337 925l-174 -157h-58l139 164z" />
    <glyph glyph-name="Icircumflex" unicode="&#xce;" horiz-adv-x="259" 
d="M173 705v-705h-87v705h87zM-40 768l143 143h54l144 -143h-67l-104 97l-104 -97h-66z" />
    <glyph glyph-name="Idieresis" unicode="&#xcf;" horiz-adv-x="259" 
d="M173 705v-705h-87v705h87zM218 869q18 0 31.5 -13t13.5 -32t-13.5 -32t-31.5 -13q-19 0 -32.5 13t-13.5 32t13.5 32t32.5 13zM45 869q19 0 32 -13t13 -32t-13 -32t-32 -13t-32 13t-13 32t13 32t32 13z" />
    <glyph glyph-name="Eth" unicode="&#xd0;" horiz-adv-x="766" 
d="M16 318v69h98v318h245q147 0 251 -103.5t104 -249.5q0 -142 -97.5 -247t-234.5 -105h-268v318h-98zM197 77h178q104 0 179 82.5t75 192.5q0 115 -79 195.5t-191 80.5h-162v-241h182v-69h-182v-241z" />
    <glyph glyph-name="Ntilde" unicode="&#xd1;" horiz-adv-x="773" 
d="M603 705h85v-705h-45l-472 544v-544h-86v705h45l473 -544v544zM236 752l-44 5q5 61 34.5 94.5t76.5 33.5q32 0 86.5 -22.5t76.5 -22.5q23 0 41.5 18.5t25.5 52.5l44 -6q-6 -60 -35.5 -93.5t-69.5 -33.5q-31 0 -86.5 23t-75.5 23q-56 0 -74 -72z" />
    <glyph glyph-name="Ograve" unicode="&#xd2;" horiz-adv-x="850" 
d="M424 710q155 0 264 -105t109 -253t-109 -253t-264 -105q-154 0 -263 105t-109 253t109 253t263 105zM424 73q118 0 201.5 81.5t83.5 197.5t-83.5 197.5t-201.5 81.5t-201.5 -82t-83.5 -197t83.5 -197t201.5 -82zM391 755l-174 157l94 7l139 -164h-59z" />
    <glyph glyph-name="Oacute" unicode="&#xd3;" horiz-adv-x="850" 
d="M424 710q155 0 264 -105t109 -253t-109 -253t-264 -105q-154 0 -263 105t-109 253t109 253t263 105zM424 73q118 0 201.5 81.5t83.5 197.5t-83.5 197.5t-201.5 81.5t-201.5 -82t-83.5 -197t83.5 -197t201.5 -82zM622 912l-174 -157h-58l139 164z" />
    <glyph glyph-name="Ocircumflex" unicode="&#xd4;" horiz-adv-x="850" 
d="M424 710q155 0 264 -105t109 -253t-109 -253t-264 -105q-154 0 -263 105t-109 253t109 253t263 105zM424 73q118 0 201.5 81.5t83.5 197.5t-83.5 197.5t-201.5 81.5t-201.5 -82t-83.5 -197t83.5 -197t201.5 -82zM249 755l143 143h54l144 -143h-67l-104 97l-104 -97h-66z
" />
    <glyph glyph-name="Otilde" unicode="&#xd5;" horiz-adv-x="850" 
d="M424 710q155 0 264 -105t109 -253t-109 -253t-264 -105q-154 0 -263 105t-109 253t109 253t263 105zM424 73q118 0 201.5 81.5t83.5 197.5t-83.5 197.5t-201.5 81.5t-201.5 -82t-83.5 -197t83.5 -197t201.5 -82zM273 752l-44 5q5 61 34.5 94.5t76.5 33.5q32 0 86.5 -22.5
t76.5 -22.5q23 0 41.5 18.5t25.5 52.5l44 -6q-6 -60 -35.5 -93.5t-69.5 -33.5q-31 0 -86.5 23t-75.5 23q-56 0 -74 -72z" />
    <glyph glyph-name="Odieresis" unicode="&#xd6;" horiz-adv-x="850" 
d="M424 710q155 0 264 -105t109 -253t-109 -253t-264 -105q-154 0 -263 105t-109 253t109 253t263 105zM424 73q118 0 201.5 81.5t83.5 197.5t-83.5 197.5t-201.5 81.5t-201.5 -82t-83.5 -197t83.5 -197t201.5 -82zM509 856q18 0 31.5 -13t13.5 -32t-13.5 -32t-31.5 -13
q-19 0 -32.5 13t-13.5 32t13.5 32t32.5 13zM336 856q19 0 32 -13t13 -32t-13 -32t-32 -13t-32 13t-13 32t13 32t32 13z" />
    <glyph glyph-name="multiply" unicode="&#xd7;" horiz-adv-x="581" 
d="M348 316l190 -190l-48 -50l-191 191l-190 -190l-50 49l191 190l-191 190l49 50l191 -192l191 192l49 -49z" />
    <glyph glyph-name="Oslash" unicode="&#xd8;" horiz-adv-x="850" 
d="M87 0l80 93q-115 105 -115 259q0 148 109 253t263 105q121 0 217 -68l54 63h75l-85 -98q112 -107 112 -255t-109 -253t-264 -105q-117 0 -212 65l-51 -59h-74zM139 352q0 -112 84 -193l364 420q-72 52 -163 52q-118 0 -201.5 -82t-83.5 -197zM424 73q118 0 201.5 81.5
t83.5 197.5q0 111 -81 189l-362 -419q71 -49 158 -49z" />
    <glyph glyph-name="Ugrave" unicode="&#xd9;" horiz-adv-x="755" 
d="M674 705v-422q0 -125 -78.5 -207t-218.5 -82t-217.5 81.5t-77.5 207.5v422h84v-404q0 -106 54.5 -167.5t156.5 -61.5q103 0 158.5 61.5t55.5 167.5v404h83zM352 755l-174 157l94 7l139 -164h-59z" />
    <glyph glyph-name="Uacute" unicode="&#xda;" horiz-adv-x="755" 
d="M674 705v-422q0 -125 -78.5 -207t-218.5 -82t-217.5 81.5t-77.5 207.5v422h84v-404q0 -106 54.5 -167.5t156.5 -61.5q103 0 158.5 61.5t55.5 167.5v404h83zM584 912l-174 -157h-58l139 164z" />
    <glyph glyph-name="Ucircumflex" unicode="&#xdb;" horiz-adv-x="755" 
d="M674 705v-422q0 -125 -78.5 -207t-218.5 -82t-217.5 81.5t-77.5 207.5v422h84v-404q0 -106 54.5 -167.5t156.5 -61.5q103 0 158.5 61.5t55.5 167.5v404h83zM209 755l143 143h54l144 -143h-67l-104 97l-104 -97h-66z" />
    <glyph glyph-name="Udieresis" unicode="&#xdc;" horiz-adv-x="755" 
d="M674 705v-422q0 -125 -78.5 -207t-218.5 -82t-217.5 81.5t-77.5 207.5v422h84v-404q0 -106 54.5 -167.5t156.5 -61.5q103 0 158.5 61.5t55.5 167.5v404h83zM466 856q18 0 31.5 -13t13.5 -32t-13.5 -32t-31.5 -13q-19 0 -32.5 13t-13.5 32t13.5 32t32.5 13zM293 856
q19 0 32 -13t13 -32t-13 -32t-32 -13t-32 13t-13 32t13 32t32 13z" />
    <glyph glyph-name="Yacute" unicode="&#xdd;" horiz-adv-x="671" 
d="M556 705h99l-276 -463v-242h-86v242l-276 463h98l221 -374zM543 912l-174 -157h-58l139 164z" />
    <glyph glyph-name="Thorn" unicode="&#xde;" horiz-adv-x="660" 
d="M85 0v705h85v-104h193q129 0 194 -65t65 -172q0 -124 -75 -185.5t-203 -61.5h-174v-117h-85zM170 188h172q90 0 142 43.5t52 131.5q0 75 -43.5 120.5t-134.5 45.5h-188v-341z" />
    <glyph glyph-name="germandbls" unicode="&#xdf;" horiz-adv-x="648" 
d="M448 420q73 -18 113.5 -73t40.5 -119q0 -111 -70.5 -172.5t-177.5 -61.5q-53 0 -93 13l6 70q35 -11 77 -11q76 0 126 42t50 120q0 60 -45 106t-125 46h-23v65h15q48 2 80.5 34.5t32.5 84.5q0 59 -42 93t-108 34q-65 0 -105.5 -49t-40.5 -127v-686h-83v673
q0 117 65.5 187.5t162.5 70.5q103 0 166.5 -52.5t63.5 -146.5q0 -49 -24 -86.5t-62 -54.5z" />
    <glyph glyph-name="agrave" unicode="&#xe0;" horiz-adv-x="669" 
d="M510 541h83v-541h-83v54q-79 -60 -188 -60q-119 0 -197 82t-78 197q0 114 78 196t197 82q110 0 188 -60v50zM510 131v281q-68 65 -175 65q-89 0 -148.5 -60t-59.5 -144t60 -144.5t148 -60.5q107 0 175 63zM308 614l-174 157l94 7l139 -164h-59z" />
    <glyph glyph-name="aacute" unicode="&#xe1;" horiz-adv-x="669" 
d="M510 541h83v-541h-83v54q-79 -60 -188 -60q-119 0 -197 82t-78 197q0 114 78 196t197 82q110 0 188 -60v50zM510 131v281q-68 65 -175 65q-89 0 -148.5 -60t-59.5 -144t60 -144.5t148 -60.5q107 0 175 63zM540 771l-174 -157h-58l139 164z" />
    <glyph glyph-name="acircumflex" unicode="&#xe2;" horiz-adv-x="669" 
d="M510 541h83v-541h-83v54q-79 -60 -188 -60q-119 0 -197 82t-78 197q0 114 78 196t197 82q110 0 188 -60v50zM510 131v281q-68 65 -175 65q-89 0 -148.5 -60t-59.5 -144t60 -144.5t148 -60.5q107 0 175 63zM171 614l143 143h54l144 -143h-67l-104 97l-104 -97h-66z" />
    <glyph glyph-name="atilde" unicode="&#xe3;" horiz-adv-x="669" 
d="M510 541h83v-541h-83v54q-79 -60 -188 -60q-119 0 -197 82t-78 197q0 114 78 196t197 82q110 0 188 -60v50zM510 131v281q-68 65 -175 65q-89 0 -148.5 -60t-59.5 -144t60 -144.5t148 -60.5q107 0 175 63zM194 611l-44 5q5 61 34.5 94.5t76.5 33.5q32 0 86.5 -22.5
t76.5 -22.5q23 0 41.5 18.5t25.5 52.5l44 -6q-6 -60 -35.5 -93.5t-69.5 -33.5q-31 0 -86.5 23t-75.5 23q-56 0 -74 -72z" />
    <glyph glyph-name="adieresis" unicode="&#xe4;" horiz-adv-x="669" 
d="M510 541h83v-541h-83v54q-79 -60 -188 -60q-119 0 -197 82t-78 197q0 114 78 196t197 82q110 0 188 -60v50zM510 131v281q-68 65 -175 65q-89 0 -148.5 -60t-59.5 -144t60 -144.5t148 -60.5q107 0 175 63zM428 715q18 0 31.5 -13t13.5 -32t-13.5 -32t-31.5 -13
q-19 0 -32.5 13t-13.5 32t13.5 32t32.5 13zM255 715q19 0 32 -13t13 -32t-13 -32t-32 -13t-32 13t-13 32t13 32t32 13z" />
    <glyph glyph-name="aring" unicode="&#xe5;" horiz-adv-x="669" 
d="M510 541h83v-541h-83v54q-79 -60 -188 -60q-119 0 -197 82t-78 197q0 114 78 196t197 82q110 0 188 -60v50zM510 131v281q-68 65 -175 65q-89 0 -148.5 -60t-59.5 -144t60 -144.5t148 -60.5q107 0 175 63zM243 721q0 39 29 67.5t68 28.5t68 -28.5t29 -67.5t-29 -67.5
t-68 -28.5t-68 28.5t-29 67.5zM340 665q23 0 40 16.5t17 40.5q0 23 -17 39.5t-40 16.5t-40 -17t-17 -40t16.5 -39.5t40.5 -16.5z" />
    <glyph glyph-name="ae" unicode="&#xe6;" horiz-adv-x="1120" 
d="M595 0h-82v54q-81 -60 -188 -60q-117 0 -197.5 79.5t-80.5 199.5t80.5 199t197.5 79q109 0 188 -60v50h82v-93q82 103 210 103q129 0 199.5 -80.5t70.5 -204.5q0 -13 -1 -20h-458q10 -78 71 -128.5t138 -50.5q107 0 172 79l55 -44q-37 -49 -97.5 -78.5t-132.5 -29.5
q-148 0 -227 102v-96zM513 131v281q-69 66 -175 66q-88 0 -149.5 -59.5t-61.5 -145.5q0 -87 61 -146.5t150 -59.5q104 0 175 64zM811 483q-76 0 -130 -49t-64 -123h375q-6 77 -52.5 124.5t-128.5 47.5z" />
    <glyph glyph-name="ccedilla" unicode="&#xe7;" horiz-adv-x="583" 
d="M259 -76l51 72q-113 10 -189.5 89t-76.5 187q0 116 86.5 197.5t208.5 81.5q125 0 203 -98l-55 -50q-58 74 -148 74q-88 0 -150.5 -60t-62.5 -145q0 -84 62.5 -144t150.5 -60q90 0 148 76l54 -50q-69 -88 -177 -99l-25 -51q20 0 34 -15.5t14 -42.5q-3 -30 -28.5 -51.5
t-76.5 -21.5l-66 6l1 34q20 -5 46 -5q32 0 49 12.5t17 30.5q0 33 -70 33z" />
    <glyph glyph-name="egrave" unicode="&#xe8;" horiz-adv-x="627" 
d="M581 246h-453q10 -78 69.5 -128.5t136.5 -50.5q107 0 172 79l55 -44q-38 -50 -101 -79t-140 -29q-120 0 -197.5 80.5t-77.5 197.5t77.5 198t197.5 81t191 -78.5t71 -204.5zM320 483q-76 0 -128.5 -49t-62.5 -123h372q-6 77 -52.5 124.5t-128.5 47.5zM289 614l-174 157
l94 7l139 -164h-59z" />
    <glyph glyph-name="eacute" unicode="&#xe9;" horiz-adv-x="627" 
d="M581 246h-453q10 -78 69.5 -128.5t136.5 -50.5q107 0 172 79l55 -44q-38 -50 -101 -79t-140 -29q-120 0 -197.5 80.5t-77.5 197.5t77.5 198t197.5 81t191 -78.5t71 -204.5zM320 483q-76 0 -128.5 -49t-62.5 -123h372q-6 77 -52.5 124.5t-128.5 47.5zM521 771l-174 -157
h-58l139 164z" />
    <glyph glyph-name="ecircumflex" unicode="&#xea;" horiz-adv-x="627" 
d="M581 246h-453q10 -78 69.5 -128.5t136.5 -50.5q107 0 172 79l55 -44q-38 -50 -101 -79t-140 -29q-120 0 -197.5 80.5t-77.5 197.5t77.5 198t197.5 81t191 -78.5t71 -204.5zM320 483q-76 0 -128.5 -49t-62.5 -123h372q-6 77 -52.5 124.5t-128.5 47.5zM146 614l143 143h54
l144 -143h-67l-104 97l-104 -97h-66z" />
    <glyph glyph-name="edieresis" unicode="&#xeb;" horiz-adv-x="627" 
d="M581 246h-453q10 -78 69.5 -128.5t136.5 -50.5q107 0 172 79l55 -44q-38 -50 -101 -79t-140 -29q-120 0 -197.5 80.5t-77.5 197.5t77.5 198t197.5 81t191 -78.5t71 -204.5zM320 483q-76 0 -128.5 -49t-62.5 -123h372q-6 77 -52.5 124.5t-128.5 47.5zM403 715
q18 0 31.5 -13t13.5 -32t-13.5 -32t-31.5 -13q-19 0 -32.5 13t-13.5 32t13.5 32t32.5 13zM230 715q19 0 32 -13t13 -32t-13 -32t-32 -13t-32 13t-13 32t13 32t32 13z" />
    <glyph glyph-name="igrave" unicode="&#xec;" horiz-adv-x="240" 
d="M93 604l-174 157l94 7l139 -164h-59zM78 0v541h83v-541h-83z" />
    <glyph glyph-name="iacute" unicode="&#xed;" horiz-adv-x="240" 
d="M327 761l-174 -157h-58l139 164zM78 0v541h83v-541h-83z" />
    <glyph glyph-name="icircumflex" unicode="&#xee;" horiz-adv-x="240" 
d="M78 0v541h83v-541h-83zM-50 604l143 143h54l144 -143h-67l-104 97l-104 -97h-66z" />
    <glyph glyph-name="idieresis" unicode="&#xef;" horiz-adv-x="240" 
d="M207 705q18 0 31.5 -13t13.5 -32t-13.5 -32t-31.5 -13q-19 0 -32.5 13t-13.5 32t13.5 32t32.5 13zM34 705q19 0 32 -13t13 -32t-13 -32t-32 -13t-32 13t-13 32t13 32t32 13zM78 0v541h83v-541h-83z" />
    <glyph glyph-name="eth" unicode="&#xf0;" horiz-adv-x="659" 
d="M202 754h94l81 -82l136 47l31 -44l-131 -46q206 -221 206 -379q0 -105 -87 -180.5t-207 -75.5q-122 0 -208.5 77t-86.5 185q0 99 78.5 171.5t198.5 72.5q99 0 163 -51q-51 74 -131 154l-164 -57l-33 44l162 57zM325 65q88 0 150 57t62 138q0 79 -63.5 125t-148.5 46
q-90 0 -151.5 -49t-61.5 -126q0 -78 62.5 -134.5t150.5 -56.5z" />
    <glyph glyph-name="ntilde" unicode="&#xf1;" horiz-adv-x="638" 
d="M340 551q111 0 171.5 -61t60.5 -183v-307h-83v307q0 82 -44 126t-118 44q-99 0 -168 -61v-416h-83v541h83v-52q70 62 181 62zM172 601l-44 5q5 61 34.5 94.5t76.5 33.5q32 0 86.5 -22.5t76.5 -22.5q23 0 41.5 18.5t25.5 52.5l44 -6q-6 -60 -35.5 -93.5t-69.5 -33.5
q-31 0 -86.5 23t-75.5 23q-56 0 -74 -72z" />
    <glyph glyph-name="ograve" unicode="&#xf2;" horiz-adv-x="677" 
d="M338 551q122 0 208 -82t86 -197t-86.5 -196.5t-207.5 -81.5q-122 0 -208.5 81.5t-86.5 196.5q0 116 86.5 197.5t208.5 81.5zM338 68q88 0 150 60t62 144q0 85 -62 145t-150 60t-150.5 -60t-62.5 -145q0 -84 62.5 -144t150.5 -60zM306 604l-174 157l94 7l139 -164h-59z
" />
    <glyph glyph-name="oacute" unicode="&#xf3;" horiz-adv-x="677" 
d="M338 551q122 0 208 -82t86 -197t-86.5 -196.5t-207.5 -81.5q-122 0 -208.5 81.5t-86.5 196.5q0 116 86.5 197.5t208.5 81.5zM338 68q88 0 150 60t62 144q0 85 -62 145t-150 60t-150.5 -60t-62.5 -145q0 -84 62.5 -144t150.5 -60zM538 761l-174 -157h-58l139 164z" />
    <glyph glyph-name="ocircumflex" unicode="&#xf4;" horiz-adv-x="677" 
d="M338 551q122 0 208 -82t86 -197t-86.5 -196.5t-207.5 -81.5q-122 0 -208.5 81.5t-86.5 196.5q0 116 86.5 197.5t208.5 81.5zM338 68q88 0 150 60t62 144q0 85 -62 145t-150 60t-150.5 -60t-62.5 -145q0 -84 62.5 -144t150.5 -60zM165 604l143 143h54l144 -143h-67
l-104 97l-104 -97h-66z" />
    <glyph glyph-name="otilde" unicode="&#xf5;" horiz-adv-x="677" 
d="M338 551q122 0 208 -82t86 -197t-86.5 -196.5t-207.5 -81.5q-122 0 -208.5 81.5t-86.5 196.5q0 116 86.5 197.5t208.5 81.5zM338 68q88 0 150 60t62 144q0 85 -62 145t-150 60t-150.5 -60t-62.5 -145q0 -84 62.5 -144t150.5 -60zM188 601l-44 5q5 61 34.5 94.5t76.5 33.5
q32 0 86.5 -22.5t76.5 -22.5q23 0 41.5 18.5t25.5 52.5l44 -6q-6 -60 -35.5 -93.5t-69.5 -33.5q-31 0 -86.5 23t-75.5 23q-56 0 -74 -72z" />
    <glyph glyph-name="odieresis" unicode="&#xf6;" horiz-adv-x="677" 
d="M338 551q122 0 208 -82t86 -197t-86.5 -196.5t-207.5 -81.5q-122 0 -208.5 81.5t-86.5 196.5q0 116 86.5 197.5t208.5 81.5zM338 68q88 0 150 60t62 144q0 85 -62 145t-150 60t-150.5 -60t-62.5 -145q0 -84 62.5 -144t150.5 -60zM422 705q18 0 31.5 -13t13.5 -32
t-13.5 -32t-31.5 -13q-19 0 -32.5 13t-13.5 32t13.5 32t32.5 13zM249 705q19 0 32 -13t13 -32t-13 -32t-32 -13t-32 13t-13 32t13 32t32 13z" />
    <glyph glyph-name="divide" unicode="&#xf7;" horiz-adv-x="526" 
d="M482 367v-69h-436v69h436zM259 516q-20 0 -34.5 14t-14.5 34t14.5 34t34.5 14t34 -14t14 -34t-14 -34t-34 -14zM259 35q-20 0 -34.5 14t-14.5 34t14.5 34t34.5 14t34 -14t14 -34t-14 -34t-34 -14z" />
    <glyph glyph-name="oslash" unicode="&#xf8;" horiz-adv-x="677" 
d="M63 0l67 76q-87 81 -87 196q0 116 86.5 197.5t208.5 81.5q92 0 169 -51l40 46h66l-69 -77q88 -80 88 -197q0 -115 -86.5 -196.5t-207.5 -81.5q-92 0 -169 51l-41 -45h-65zM338 68q88 0 150 60t62 144q0 80 -61 136l-268 -304q50 -36 117 -36zM125 272q0 -80 60 -135
l269 304q-52 36 -116 36q-88 0 -150.5 -60t-62.5 -145z" />
    <glyph glyph-name="ugrave" unicode="&#xf9;" horiz-adv-x="645" 
d="M486 541h83v-541h-83v56q-73 -62 -187 -62q-111 0 -171.5 61t-60.5 183v303h82v-303q0 -82 44.5 -126t118.5 -44q104 0 174 61v412zM295 604l-174 157l94 7l139 -164h-59z" />
    <glyph glyph-name="uacute" unicode="&#xfa;" horiz-adv-x="645" 
d="M486 541h83v-541h-83v56q-73 -62 -187 -62q-111 0 -171.5 61t-60.5 183v303h82v-303q0 -82 44.5 -126t118.5 -44q104 0 174 61v412zM527 761l-174 -157h-58l139 164z" />
    <glyph glyph-name="ucircumflex" unicode="&#xfb;" horiz-adv-x="645" 
d="M486 541h83v-541h-83v56q-73 -62 -187 -62q-111 0 -171.5 61t-60.5 183v303h82v-303q0 -82 44.5 -126t118.5 -44q104 0 174 61v412zM147 604l143 143h54l144 -143h-67l-104 97l-104 -97h-66z" />
    <glyph glyph-name="udieresis" unicode="&#xfc;" horiz-adv-x="645" 
d="M486 541h83v-541h-83v56q-73 -62 -187 -62q-111 0 -171.5 61t-60.5 183v303h82v-303q0 -82 44.5 -126t118.5 -44q104 0 174 61v412zM403 705q18 0 31.5 -13t13.5 -32t-13.5 -32t-31.5 -13q-19 0 -32.5 13t-13.5 32t13.5 32t32.5 13zM230 705q19 0 32 -13t13 -32t-13 -32
t-32 -13t-32 13t-13 32t13 32t32 13z" />
    <glyph glyph-name="yacute" unicode="&#xfd;" horiz-adv-x="613" 
d="M498 541h86l-227 -570q-17 -41 -47 -72.5t-68 -49t-78.5 -26.5t-83.5 -9q-27 0 -39 1l9 63h13q171 0 218 122h-22l-232 541h88l191 -443h18zM517 761l-174 -157h-58l139 164z" />
    <glyph glyph-name="thorn" unicode="&#xfe;" horiz-adv-x="672" 
d="M346 551q117 0 198 -79.5t81 -198.5q0 -120 -81 -199.5t-198 -79.5q-107 0 -187 57v-226h-83v929h83v-262q77 59 187 59zM334 68q88 0 148 59t60 146q0 86 -60 145t-148 59q-108 0 -175 -65v-281q66 -63 175 -63z" />
    <glyph glyph-name="ydieresis" unicode="&#xff;" horiz-adv-x="613" 
d="M498 541h86l-227 -570q-17 -41 -47 -72.5t-68 -49t-78.5 -26.5t-83.5 -9q-27 0 -39 1l9 63h13q171 0 218 122h-22l-232 541h88l191 -443h18zM399 705q18 0 31.5 -13t13.5 -32t-13.5 -32t-31.5 -13q-19 0 -32.5 13t-13.5 32t13.5 32t32.5 13zM226 705q19 0 32 -13t13 -32
t-13 -32t-32 -13t-32 13t-13 32t13 32t32 13z" />
    <glyph glyph-name="Amacron" unicode="&#x100;" 
d="M629 0l-79 177h-363l-78 -177h-90l326 705h47l327 -705h-90zM368 588l-150 -341h301zM210 782v55h316v-55h-316z" />
    <glyph glyph-name="amacron" unicode="&#x101;" horiz-adv-x="669" 
d="M510 541h83v-541h-83v54q-79 -60 -188 -60q-119 0 -197 82t-78 197q0 114 78 196t197 82q110 0 188 -60v50zM510 131v281q-68 65 -175 65q-89 0 -148.5 -60t-59.5 -144t60 -144.5t148 -60.5q107 0 175 63zM176 641v55h316v-55h-316z" />
    <glyph glyph-name="Abreve" unicode="&#x102;" 
d="M629 0l-79 177h-363l-78 -177h-90l326 705h47l327 -705h-90zM368 588l-150 -341h301zM369 770q-70 0 -111.5 34t-46.5 102l55 4q12 -84 103 -84q92 0 102 84l56 -4q-6 -68 -47.5 -102t-110.5 -34z" />
    <glyph glyph-name="abreve" unicode="&#x103;" horiz-adv-x="669" 
d="M510 541h83v-541h-83v54q-79 -60 -188 -60q-119 0 -197 82t-78 197q0 114 78 196t197 82q110 0 188 -60v50zM510 131v281q-68 65 -175 65q-89 0 -148.5 -60t-59.5 -144t60 -144.5t148 -60.5q107 0 175 63zM336 629q-70 0 -111.5 34t-46.5 102l55 4q12 -84 103 -84
q92 0 102 84l56 -4q-6 -68 -47.5 -102t-110.5 -34z" />
    <glyph glyph-name="Aogonek" unicode="&#x104;" 
d="M629 0l-79 177h-363l-78 -177h-90l326 705h47l327 -705h-1l-6 -7q-7 -7 -14 -15t-14.5 -18.5t-12.5 -22t-5 -21.5q0 -19 13 -30t36 -11q5 0 31 4l3 -45q-32 -6 -55 -6q-92 0 -92 75q0 42 55 97h-28zM368 588l-150 -341h301z" />
    <glyph glyph-name="aogonek" unicode="&#x105;" horiz-adv-x="669" 
d="M621 -121l3 -45q-32 -6 -55 -6q-92 0 -92 75q0 42 55 97h-22v54q-79 -60 -188 -60q-119 0 -197 82t-78 197q0 114 78 196t197 82q110 0 188 -60v50h83v-541l-7 -7q-6 -7 -13 -15t-14.5 -18.5t-12.5 -22t-5 -21.5q0 -19 13 -30t36 -11q5 0 31 4zM510 131v281
q-68 65 -175 65q-89 0 -148.5 -60t-59.5 -144t60 -144.5t148 -60.5q107 0 175 63z" />
    <glyph glyph-name="Cacute" unicode="&#x106;" horiz-adv-x="756" 
d="M423 74q67 0 125 29t97 80l66 -55q-52 -63 -127 -98.5t-161 -35.5q-154 0 -262.5 105t-108.5 253t108.5 253.5t262.5 105.5q85 0 160.5 -36t127.5 -99l-66 -55q-39 51 -97 80.5t-125 29.5q-118 0 -200.5 -80.5t-82.5 -198.5t82.5 -198t200.5 -80zM618 912l-174 -157h-58
l139 164z" />
    <glyph glyph-name="cacute" unicode="&#x107;" horiz-adv-x="583" 
d="M487 144l54 -50q-79 -100 -202 -100q-122 0 -208.5 81.5t-86.5 196.5q0 116 86.5 197.5t208.5 81.5q125 0 203 -98l-55 -50q-58 74 -148 74q-88 0 -150.5 -60t-62.5 -145q0 -84 62.5 -144t150.5 -60q90 0 148 76zM533 771l-174 -157h-58l139 164z" />
    <glyph glyph-name="Ccircumflex" unicode="&#x108;" horiz-adv-x="756" 
d="M423 74q67 0 125 29t97 80l66 -55q-52 -63 -127 -98.5t-161 -35.5q-154 0 -262.5 105t-108.5 253t108.5 253.5t262.5 105.5q85 0 160.5 -36t127.5 -99l-66 -55q-39 51 -97 80.5t-125 29.5q-118 0 -200.5 -80.5t-82.5 -198.5t82.5 -198t200.5 -80zM243 755l143 143h54
l144 -143h-67l-104 97l-104 -97h-66z" />
    <glyph glyph-name="ccircumflex" unicode="&#x109;" horiz-adv-x="583" 
d="M487 144l54 -50q-79 -100 -202 -100q-122 0 -208.5 81.5t-86.5 196.5q0 116 86.5 197.5t208.5 81.5q125 0 203 -98l-55 -50q-58 74 -148 74q-88 0 -150.5 -60t-62.5 -145q0 -84 62.5 -144t150.5 -60q90 0 148 76zM155 614l143 143h54l144 -143h-67l-104 97l-104 -97h-66z
" />
    <glyph glyph-name="Cdotaccent" unicode="&#x10a;" horiz-adv-x="756" 
d="M423 74q67 0 125 29t97 80l66 -55q-52 -63 -127 -98.5t-161 -35.5q-154 0 -262.5 105t-108.5 253t108.5 253.5t262.5 105.5q85 0 160.5 -36t127.5 -99l-66 -55q-39 51 -97 80.5t-125 29.5q-118 0 -200.5 -80.5t-82.5 -198.5t82.5 -198t200.5 -80zM419 856q19 0 32 -13
t13 -32t-13 -32t-32 -13t-32 13t-13 32t13 32t32 13z" />
    <glyph glyph-name="cdotaccent" unicode="&#x10b;" horiz-adv-x="583" 
d="M487 144l54 -50q-79 -100 -202 -100q-122 0 -208.5 81.5t-86.5 196.5q0 116 86.5 197.5t208.5 81.5q125 0 203 -98l-55 -50q-58 74 -148 74q-88 0 -150.5 -60t-62.5 -145q0 -84 62.5 -144t150.5 -60q90 0 148 76zM334 715q19 0 32 -13t13 -32t-13 -32t-32 -13t-32 13
t-13 32t13 32t32 13z" />
    <glyph glyph-name="Ccaron" unicode="&#x10c;" horiz-adv-x="756" 
d="M423 74q67 0 125 29t97 80l66 -55q-52 -63 -127 -98.5t-161 -35.5q-154 0 -262.5 105t-108.5 253t108.5 253.5t262.5 105.5q85 0 160.5 -36t127.5 -99l-66 -55q-39 51 -97 80.5t-125 29.5q-118 0 -200.5 -80.5t-82.5 -198.5t82.5 -198t200.5 -80zM392 755l-143 143h66
l104 -97l104 97h67l-144 -143h-54z" />
    <glyph glyph-name="ccaron" unicode="&#x10d;" horiz-adv-x="583" 
d="M487 144l54 -50q-79 -100 -202 -100q-122 0 -208.5 81.5t-86.5 196.5q0 116 86.5 197.5t208.5 81.5q125 0 203 -98l-55 -50q-58 74 -148 74q-88 0 -150.5 -60t-62.5 -145q0 -84 62.5 -144t150.5 -60q90 0 148 76zM300 614l-143 143h66l104 -97l104 97h67l-144 -143h-54z
" />
    <glyph glyph-name="Dcaron" unicode="&#x10e;" 
d="M685 352q0 -142 -97.5 -247t-234.5 -105h-268v705h245q147 0 251 -103.5t104 -249.5zM168 77h178q104 0 179 82.5t75 192.5q0 115 -79 195.5t-191 80.5h-162v-551zM297 755l-143 143h66l104 -97l104 97h67l-144 -143h-54z" />
    <glyph glyph-name="dcaron" unicode="&#x10f;" horiz-adv-x="767" 
d="M512 754h82v-754h-82v52q-77 -58 -188 -58q-116 0 -197.5 79.5t-81.5 198.5q0 120 81.5 199.5t197.5 79.5q107 0 188 -57v260zM336 68q108 0 176 65v281q-68 63 -176 63q-87 0 -147.5 -59.5t-60.5 -145.5q0 -87 60.5 -145.5t147.5 -58.5zM714 705q52 0 52 -69
q0 -54 -31.5 -93.5t-96.5 -39.5l-12 35q80 3 83 69q-18 3 -30.5 17t-12.5 32q0 21 14.5 35t33.5 14z" />
    <glyph glyph-name="Dcroat" unicode="&#x110;" horiz-adv-x="766" 
d="M16 318v69h98v318h245q147 0 251 -103.5t104 -249.5q0 -142 -97.5 -247t-234.5 -105h-268v318h-98zM197 77h178q104 0 179 82.5t75 192.5q0 115 -79 195.5t-191 80.5h-162v-241h182v-69h-182v-241zM165 782v55h316v-55h-316z" />
    <glyph glyph-name="dcroat" unicode="&#x111;" horiz-adv-x="670" 
d="M712 667v-70h-118v-597h-82v52q-77 -58 -188 -58q-116 0 -197.5 79.5t-81.5 198.5q0 120 81.5 199.5t197.5 79.5q107 0 188 -57v103h-116v70h116v87h82v-87h118zM336 68q108 0 176 65v281q-68 63 -176 63q-87 0 -147.5 -59.5t-60.5 -145.5q0 -87 60.5 -145.5t147.5 -58.5
z" />
    <glyph glyph-name="Emacron" unicode="&#x112;" horiz-adv-x="644" 
d="M168 73h427v-73h-510v705h489v-73h-406v-254h344v-72h-344v-233zM175 782v55h316v-55h-316z" />
    <glyph glyph-name="emacron" unicode="&#x113;" horiz-adv-x="627" 
d="M581 246h-453q10 -78 69.5 -128.5t136.5 -50.5q107 0 172 79l55 -44q-38 -50 -101 -79t-140 -29q-120 0 -197.5 80.5t-77.5 197.5t77.5 198t197.5 81t191 -78.5t71 -204.5zM320 483q-76 0 -128.5 -49t-62.5 -123h372q-6 77 -52.5 124.5t-128.5 47.5zM165 641v55h316v-55
h-316z" />
    <glyph glyph-name="Ebreve" unicode="&#x114;" horiz-adv-x="644" 
d="M168 73h427v-73h-510v705h489v-73h-406v-254h344v-72h-344v-233zM335 770q-70 0 -111.5 34t-46.5 102l55 4q12 -84 103 -84q92 0 102 84l56 -4q-6 -68 -47.5 -102t-110.5 -34z" />
    <glyph glyph-name="ebreve" unicode="&#x115;" horiz-adv-x="627" 
d="M581 246h-453q10 -78 69.5 -128.5t136.5 -50.5q107 0 172 79l55 -44q-38 -50 -101 -79t-140 -29q-120 0 -197.5 80.5t-77.5 197.5t77.5 198t197.5 81t191 -78.5t71 -204.5zM320 483q-76 0 -128.5 -49t-62.5 -123h372q-6 77 -52.5 124.5t-128.5 47.5zM317 629
q-70 0 -111.5 34t-46.5 102l55 4q12 -84 103 -84q92 0 102 84l56 -4q-6 -68 -47.5 -102t-110.5 -34z" />
    <glyph glyph-name="Edotaccent" unicode="&#x116;" horiz-adv-x="644" 
d="M168 73h427v-73h-510v705h489v-73h-406v-254h344v-72h-344v-233zM334 856q19 0 32 -13t13 -32t-13 -32t-32 -13t-32 13t-13 32t13 32t32 13z" />
    <glyph glyph-name="edotaccent" unicode="&#x117;" horiz-adv-x="627" 
d="M581 246h-453q10 -78 69.5 -128.5t136.5 -50.5q107 0 172 79l55 -44q-38 -50 -101 -79t-140 -29q-120 0 -197.5 80.5t-77.5 197.5t77.5 198t197.5 81t191 -78.5t71 -204.5zM320 483q-76 0 -128.5 -49t-62.5 -123h372q-6 77 -52.5 124.5t-128.5 47.5zM316 715q19 0 32 -13
t13 -32t-13 -32t-32 -13t-32 13t-13 32t13 32t32 13z" />
    <glyph glyph-name="Eogonek" unicode="&#x118;" horiz-adv-x="644" 
d="M623 -121l3 -45q-32 -6 -55 -6q-92 0 -92 75q0 42 55 97h-449v705h489v-73h-406v-254h344v-72h-344v-233h427v-73l-7 -7q-6 -7 -13 -15t-14.5 -18.5t-12.5 -22t-5 -21.5q0 -19 13 -30t36 -11q5 0 31 4z" />
    <glyph glyph-name="eogonek" unicode="&#x119;" horiz-adv-x="627" 
d="M424 -118l3 -45q-32 -6 -55 -6q-92 0 -92 75q0 38 47 88h-7q-120 0 -197.5 80.5t-77.5 197.5t77.5 198t197.5 81t191 -78.5t71 -204.5l-1 -22h-453q10 -78 69.5 -128.5t136.5 -50.5q107 0 172 79l55 -44q-59 -78 -166 -101q-51 -51 -51 -82q0 -19 13 -30t36 -11q5 0 31 4
zM320 483q-76 0 -128.5 -49t-62.5 -123h372q-6 77 -52.5 124.5t-128.5 47.5z" />
    <glyph glyph-name="Ecaron" unicode="&#x11a;" horiz-adv-x="644" 
d="M168 73h427v-73h-510v705h489v-73h-406v-254h344v-72h-344v-233zM307 755l-143 143h66l104 -97l104 97h67l-144 -143h-54z" />
    <glyph glyph-name="ecaron" unicode="&#x11b;" horiz-adv-x="627" 
d="M581 246h-453q10 -78 69.5 -128.5t136.5 -50.5q107 0 172 79l55 -44q-38 -50 -101 -79t-140 -29q-120 0 -197.5 80.5t-77.5 197.5t77.5 198t197.5 81t191 -78.5t71 -204.5zM320 483q-76 0 -128.5 -49t-62.5 -123h372q-6 77 -52.5 124.5t-128.5 47.5zM289 614l-143 143h66
l104 -97l104 97h67l-144 -143h-54z" />
    <glyph glyph-name="Gcircumflex" unicode="&#x11c;" horiz-adv-x="791" 
d="M408 338h322v-241q-128 -103 -305 -103q-154 0 -263.5 105t-109.5 253t109.5 253t263.5 105q170 0 279 -101l-54 -59q-89 81 -225 81q-118 0 -202 -81.5t-84 -197.5q0 -118 83.5 -200t202.5 -82q126 0 219 69v128h-236v71zM244 755l143 143h54l144 -143h-67l-104 97
l-104 -97h-66z" />
    <glyph glyph-name="gcircumflex" unicode="&#x11d;" horiz-adv-x="670" 
d="M511 541h83v-463q0 -111 -68 -188t-200 -77q-27 0 -48 0.5t-40.5 2.5t-30 3t-29 5.5t-24 6t-28.5 8.5t-30 9l16 62q43 -13 63.5 -18t56 -9.5t77.5 -4.5q92 0 142 47.5t56 117.5q0 2 0.5 8t0.5 9q-80 -54 -185 -54q-116 0 -197 78t-81 195q0 116 81 194t197 78
q109 0 188 -59v49zM127 278q0 -84 60.5 -141t148.5 -57q109 0 175 61v272q-69 64 -175 64q-88 0 -148.5 -58t-60.5 -141zM166 614l143 143h54l144 -143h-67l-104 97l-104 -97h-66z" />
    <glyph glyph-name="Gbreve" unicode="&#x11e;" horiz-adv-x="791" 
d="M408 338h322v-241q-128 -103 -305 -103q-154 0 -263.5 105t-109.5 253t109.5 253t263.5 105q170 0 279 -101l-54 -59q-89 81 -225 81q-118 0 -202 -81.5t-84 -197.5q0 -118 83.5 -200t202.5 -82q126 0 219 69v128h-236v71zM415 770q-70 0 -111.5 34t-46.5 102l55 4
q12 -84 103 -84q92 0 102 84l56 -4q-6 -68 -47.5 -102t-110.5 -34z" />
    <glyph glyph-name="gbreve" unicode="&#x11f;" horiz-adv-x="670" 
d="M511 541h83v-463q0 -111 -68 -188t-200 -77q-27 0 -48 0.5t-40.5 2.5t-30 3t-29 5.5t-24 6t-28.5 8.5t-30 9l16 62q43 -13 63.5 -18t56 -9.5t77.5 -4.5q92 0 142 47.5t56 117.5q0 2 0.5 8t0.5 9q-80 -54 -185 -54q-116 0 -197 78t-81 195q0 116 81 194t197 78
q109 0 188 -59v49zM127 278q0 -84 60.5 -141t148.5 -57q109 0 175 61v272q-69 64 -175 64q-88 0 -148.5 -58t-60.5 -141zM337 629q-70 0 -111.5 34t-46.5 102l55 4q12 -84 103 -84q92 0 102 84l56 -4q-6 -68 -47.5 -102t-110.5 -34z" />
    <glyph glyph-name="Gdotaccent" unicode="&#x120;" horiz-adv-x="791" 
d="M408 338h322v-241q-128 -103 -305 -103q-154 0 -263.5 105t-109.5 253t109.5 253t263.5 105q170 0 279 -101l-54 -59q-89 81 -225 81q-118 0 -202 -81.5t-84 -197.5q0 -118 83.5 -200t202.5 -82q126 0 219 69v128h-236v71zM414 856q19 0 32 -13t13 -32t-13 -32t-32 -13
t-32 13t-13 32t13 32t32 13z" />
    <glyph glyph-name="gdotaccent" unicode="&#x121;" horiz-adv-x="670" 
d="M511 541h83v-463q0 -111 -68 -188t-200 -77q-27 0 -48 0.5t-40.5 2.5t-30 3t-29 5.5t-24 6t-28.5 8.5t-30 9l16 62q43 -13 63.5 -18t56 -9.5t77.5 -4.5q92 0 142 47.5t56 117.5q0 2 0.5 8t0.5 9q-80 -54 -185 -54q-116 0 -197 78t-81 195q0 116 81 194t197 78
q109 0 188 -59v49zM127 278q0 -84 60.5 -141t148.5 -57q109 0 175 61v272q-69 64 -175 64q-88 0 -148.5 -58t-60.5 -141zM336 715q19 0 32 -13t13 -32t-13 -32t-32 -13t-32 13t-13 32t13 32t32 13z" />
    <glyph glyph-name="Gcommaaccent" unicode="&#x122;" horiz-adv-x="791" 
d="M408 338h322v-241q-128 -103 -305 -103q-154 0 -263.5 105t-109.5 253t109.5 253t263.5 105q170 0 279 -101l-54 -59q-89 81 -225 81q-118 0 -202 -81.5t-84 -197.5q0 -118 83.5 -200t202.5 -82q126 0 219 69v128h-236v71zM424 -62q51 0 51 -70q0 -54 -31 -93t-97 -39
l-12 35q80 2 83 69q-18 2 -30 16t-12 33q0 20 14 34.5t34 14.5z" />
    <glyph glyph-name="gcommaaccent" unicode="&#x123;" horiz-adv-x="670" 
d="M511 541h83v-463q0 -111 -68 -188t-200 -77q-27 0 -48 0.5t-40.5 2.5t-30 3t-29 5.5t-24 6t-28.5 8.5t-30 9l16 62q43 -13 63.5 -18t56 -9.5t77.5 -4.5q92 0 142 47.5t56 117.5q0 2 0.5 8t0.5 9q-80 -54 -185 -54q-116 0 -197 78t-81 195q0 116 81 194t197 78
q109 0 188 -59v49zM127 278q0 -84 60.5 -141t148.5 -57q109 0 175 61v272q-69 64 -175 64q-88 0 -148.5 -58t-60.5 -141zM335 634q-51 0 -51 70q0 54 31 93t97 39l12 -35q-80 -2 -83 -69q18 -2 30 -16t12 -33q0 -20 -14 -34.5t-34 -14.5z" />
    <glyph glyph-name="Hcircumflex" unicode="&#x124;" 
d="M568 705h84v-705h-84v271h-400v-271h-83v705h83v-361h400v361zM211 755l143 143h54l144 -143h-67l-104 97l-104 -97h-66z" />
    <glyph glyph-name="hcircumflex" unicode="&#x125;" horiz-adv-x="637" 
d="M340 551q111 0 171.5 -61t60.5 -183v-307h-83v307q0 82 -44.5 126t-117.5 44q-98 0 -168 -60v-417h-83v754h83v-262q70 59 181 59zM162 755l143 143h54l144 -143h-67l-104 97l-104 -97h-66z" />
    <glyph glyph-name="Hbar" unicode="&#x126;" 
d="M44 565v58h41v82h83v-82h400v82h84v-82h40v-58h-40v-565h-84v271h-400v-271h-83v565h-41zM168 344h400v221h-400v-221z" />
    <glyph glyph-name="hbar" unicode="&#x127;" horiz-adv-x="637" 
d="M-16 566v57h92v131h83v-131h93v-57h-93v-74q70 59 181 59t171.5 -61t60.5 -183v-307h-83v307q0 82 -44.5 126t-117.5 44q-98 0 -168 -60v-417h-83v566h-92z" />
    <glyph glyph-name="Itilde" unicode="&#x128;" horiz-adv-x="259" 
d="M173 705v-705h-87v705h87zM-17 765l-44 5q5 61 34.5 94.5t76.5 33.5q32 0 86.5 -22.5t76.5 -22.5q23 0 41.5 18.5t25.5 52.5l44 -6q-6 -60 -35.5 -93.5t-69.5 -33.5q-31 0 -86.5 23t-75.5 23q-56 0 -74 -72z" />
    <glyph glyph-name="itilde" unicode="&#x129;" horiz-adv-x="240" 
d="M-27 601l-44 5q5 61 34.5 94.5t76.5 33.5q32 0 86.5 -22.5t76.5 -22.5q23 0 41.5 18.5t25.5 52.5l44 -6q-6 -60 -35.5 -93.5t-69.5 -33.5q-31 0 -86.5 23t-75.5 23q-56 0 -74 -72zM78 0v541h83v-541h-83z" />
    <glyph glyph-name="Imacron" unicode="&#x12a;" horiz-adv-x="259" 
d="M173 705v-705h-87v705h87zM-29 795v55h316v-55h-316z" />
    <glyph glyph-name="imacron" unicode="&#x12b;" horiz-adv-x="240" 
d="M-38 631v55h316v-55h-316zM78 0v541h83v-541h-83z" />
    <glyph glyph-name="Ibreve" unicode="&#x12c;" horiz-adv-x="259" 
d="M173 705v-705h-87v705h87zM130 783q-70 0 -111.5 34t-46.5 102l55 4q12 -84 103 -84q92 0 102 84l56 -4q-6 -68 -47.5 -102t-110.5 -34z" />
    <glyph glyph-name="ibreve" unicode="&#x12d;" horiz-adv-x="240" 
d="M121 619q-70 0 -111.5 34t-46.5 102l55 4q12 -84 103 -84q92 0 102 84l56 -4q-6 -68 -47.5 -102t-110.5 -34zM78 0v541h83v-541h-83z" />
    <glyph glyph-name="Iogonek" unicode="&#x12e;" horiz-adv-x="259" 
d="M201 -121l3 -45q-31 -6 -55 -6q-92 0 -92 75q0 42 55 97h-26v705h87v-705l-7 -7q-6 -7 -13 -15t-14.5 -18.5t-12.5 -22t-5 -21.5q0 -19 13 -30t36 -11q5 0 31 4z" />
    <glyph glyph-name="iogonek" unicode="&#x12f;" horiz-adv-x="240" 
d="M78 0v541h83v-541l-7 -7q-6 -7 -13 -15t-14.5 -18.5t-12.5 -22t-5 -21.5q0 -19 13 -30t36 -11q5 0 31 4l3 -45q-32 -6 -55 -6q-92 0 -92 75q0 42 55 97h-22zM120 631q-22 0 -37.5 15t-15.5 37t15.5 36.5t37.5 14.5q21 0 36 -14.5t15 -36.5t-15 -37t-36 -15z" />
    <glyph glyph-name="Idotaccent" unicode="&#x130;" horiz-adv-x="259" 
d="M173 705v-705h-87v705h87zM130 869q19 0 32 -13t13 -32t-13 -32t-32 -13t-32 13t-13 32t13 32t32 13z" />
    <glyph glyph-name="dotlessi" unicode="&#x131;" horiz-adv-x="240" 
d="M78 0v541h83v-541h-83z" />
    <glyph glyph-name="IJ" unicode="&#x132;" horiz-adv-x="851" 
d="M173 705v-705h-87v705h87zM697 705h85v-417q0 -135 -63 -214.5t-187 -79.5q-93 0 -162.5 61t-82.5 152l75 7q12 -62 58 -101.5t110 -39.5q80 0 123.5 53.5t43.5 141.5v437z" />
    <glyph glyph-name="ij" unicode="&#x133;" horiz-adv-x="481" 
d="M78 0v541h83v-541h-83zM120 631q-22 0 -37.5 15t-15.5 37t15.5 36.5t37.5 14.5q21 0 36 -14.5t15 -36.5t-15 -37t-36 -15zM319 10v531h84v-565q0 -78 -44 -120.5t-112 -42.5q-29 0 -61 6v67q8 -1 28 -1q53 0 79 29.5t26 95.5zM360 631q-22 0 -37 15t-15 37t15 36.5
t37 14.5t37 -14.5t15 -36.5t-15 -37t-37 -15z" />
    <glyph glyph-name="Jcircumflex" unicode="&#x134;" horiz-adv-x="594" 
d="M434 705h85v-417q0 -135 -63 -214.5t-187 -79.5q-93 0 -162.5 61t-82.5 152l75 7q12 -62 58 -101.5t110 -39.5q80 0 123.5 53.5t43.5 141.5v437zM166 755l143 143h54l144 -143h-67l-104 97l-104 -97h-66z" />
    <glyph glyph-name="jcircumflex" unicode="&#x135;" horiz-adv-x="239" 
d="M77 10v531h84v-565q0 -78 -44 -120.5t-112 -42.5q-29 0 -61 6v67q8 -1 28 -1q53 0 79 29.5t26 95.5zM-50 614l143 143h54l144 -143h-67l-104 97l-104 -97h-66z" />
    <glyph glyph-name="Kcommaaccent" unicode="&#x136;" horiz-adv-x="698" 
d="M345 361l321 -361h-114l-263 298l-121 -131v-167h-83v705h83v-419l384 419h105zM338 -62q51 0 51 -70q0 -54 -31 -93t-97 -39l-12 35q80 2 83 69q-18 2 -30 16t-12 33q0 20 14 34.5t34 14.5z" />
    <glyph glyph-name="kcommaaccent" unicode="&#x137;" horiz-adv-x="609" 
d="M381 333l210 -333h-94l-172 270l-166 -157v-113h-83v754h83v-532l329 319h102zM307 -62q51 0 51 -70q0 -54 -31 -93t-97 -39l-12 35q80 2 83 69q-18 2 -30 16t-12 33q0 20 14 34.5t34 14.5z" />
    <glyph glyph-name="kgreenlandic" unicode="&#x138;" horiz-adv-x="609" 
d="M381 333l210 -333h-94l-172 270l-166 -157v-113h-83v541h83v-319l329 319h102z" />
    <glyph glyph-name="Lacute" unicode="&#x139;" horiz-adv-x="599" 
d="M171 71h391v-71h-477v705h86v-634zM324 912l-174 -157h-58l139 164z" />
    <glyph glyph-name="lacute" unicode="&#x13a;" horiz-adv-x="239" 
d="M77 0v754h84v-754h-84zM327 961l-174 -157h-58l139 164z" />
    <glyph glyph-name="Lcommaaccent" unicode="&#x13b;" horiz-adv-x="599" 
d="M171 71h391v-71h-477v705h86v-634zM323 -62q51 0 51 -70q0 -54 -31 -93t-97 -39l-12 35q80 2 83 69q-18 2 -30 16t-12 33q0 20 14 34.5t34 14.5z" />
    <glyph glyph-name="lcommaaccent" unicode="&#x13c;" horiz-adv-x="239" 
d="M77 0v754h84v-754h-84zM115 -62q51 0 51 -70q0 -54 -31 -93t-97 -39l-12 35q80 2 83 69q-18 2 -30 16t-12 33q0 20 14 34.5t34 14.5z" />
    <glyph glyph-name="Lcaron" unicode="&#x13d;" horiz-adv-x="599" 
d="M171 71h391v-71h-477v705h86v-634zM326 706q52 0 52 -69q0 -54 -31.5 -93.5t-96.5 -39.5l-12 35q80 3 83 69q-18 3 -30.5 17t-12.5 32q0 21 14.5 35t33.5 14z" />
    <glyph glyph-name="lcaron" unicode="&#x13e;" horiz-adv-x="360" 
d="M77 0v754h84v-754h-84zM309 705q52 0 52 -69q0 -54 -31.5 -93.5t-96.5 -39.5l-12 35q80 3 83 69q-18 3 -30.5 17t-12.5 32q0 21 14.5 35t33.5 14z" />
    <glyph glyph-name="Ldot" unicode="&#x13f;" horiz-adv-x="599" 
d="M171 71h391v-71h-477v705h86v-634zM341 514q0 -22 -15 -37t-37 -15t-37 15t-15 37t15 37t37 15t37 -15t15 -37z" />
    <glyph glyph-name="ldot" unicode="&#x140;" horiz-adv-x="329" 
d="M77 0v754h84v-754h-84zM316 514q0 -22 -15 -37t-37 -15t-37 15t-15 37t15 37t37 15t37 -15t15 -37z" />
    <glyph glyph-name="Lslash" unicode="&#x141;" horiz-adv-x="599" 
d="M-6 267v80l91 26v332h86v-307l225 66v-80l-225 -65v-248h391v-71h-477v294z" />
    <glyph glyph-name="lslash" unicode="&#x142;" horiz-adv-x="329" 
d="M-16 265v80l120 35v374h85v-350l128 38v-79l-128 -38v-325h-85v300z" />
    <glyph glyph-name="Nacute" unicode="&#x143;" horiz-adv-x="773" 
d="M603 705h85v-705h-45l-472 544v-544h-86v705h45l473 -544v544zM591 912l-174 -157h-58l139 164z" />
    <glyph glyph-name="nacute" unicode="&#x144;" horiz-adv-x="638" 
d="M340 551q111 0 171.5 -61t60.5 -183v-307h-83v307q0 82 -44 126t-118 44q-99 0 -168 -61v-416h-83v541h83v-52q70 62 181 62zM518 761l-174 -157h-58l139 164z" />
    <glyph glyph-name="Ncommaaccent" unicode="&#x145;" horiz-adv-x="773" 
d="M603 705h85v-705h-45l-472 544v-544h-86v705h45l473 -544v544zM392 -62q51 0 51 -70q0 -54 -31 -93t-97 -39l-12 35q80 2 83 69q-18 2 -30 16t-12 33q0 20 14 34.5t34 14.5z" />
    <glyph glyph-name="ncommaaccent" unicode="&#x146;" horiz-adv-x="638" 
d="M340 551q111 0 171.5 -61t60.5 -183v-307h-83v307q0 82 -44 126t-118 44q-99 0 -168 -61v-416h-83v541h83v-52q70 62 181 62zM331 -62q51 0 51 -70q0 -54 -31 -93t-97 -39l-12 35q80 2 83 69q-18 2 -30 16t-12 33q0 20 14 34.5t34 14.5z" />
    <glyph glyph-name="Ncaron" unicode="&#x147;" horiz-adv-x="773" 
d="M603 705h85v-705h-45l-472 544v-544h-86v705h45l473 -544v544zM359 755l-143 143h66l104 -97l104 97h67l-144 -143h-54z" />
    <glyph glyph-name="ncaron" unicode="&#x148;" horiz-adv-x="638" 
d="M340 551q111 0 171.5 -61t60.5 -183v-307h-83v307q0 82 -44 126t-118 44q-99 0 -168 -61v-416h-83v541h83v-52q70 62 181 62zM286 604l-143 143h66l104 -97l104 97h67l-144 -143h-54z" />
    <glyph glyph-name="napostrophe" unicode="&#x149;" horiz-adv-x="638" 
d="M340 551q111 0 171.5 -61t60.5 -183v-307h-83v307q0 82 -44 126t-118 44q-99 0 -168 -61v-416h-83v541h83v-52q70 62 181 62zM140 804q51 0 51 -70q0 -54 -31 -93t-97 -39l-12 35q80 2 83 69q-18 2 -30 16t-12 33q0 20 14 34.5t34 14.5z" />
    <glyph glyph-name="Eng" unicode="&#x14a;" horiz-adv-x="773" 
d="M603 705h85v-695q0 -127 -64.5 -202.5t-185.5 -75.5q-93 0 -162.5 60.5t-82.5 151.5l75 8q12 -62 58 -101.5t110 -39.5q93 0 129.5 59t36.5 170l-431 513v-553h-86v705h45l473 -553v553z" />
    <glyph glyph-name="eng" unicode="&#x14b;" horiz-adv-x="638" 
d="M340 551q111 0 171.5 -61t60.5 -183v-331q0 -78 -44 -120.5t-112 -42.5q-29 0 -61 6v67q8 -1 29 -1q105 0 105 112v310q0 82 -44.5 126t-117.5 44q-99 0 -168 -61v-416h-83v541h83v-52q70 62 181 62z" />
    <glyph glyph-name="Omacron" unicode="&#x14c;" horiz-adv-x="850" 
d="M424 710q155 0 264 -105t109 -253t-109 -253t-264 -105q-154 0 -263 105t-109 253t109 253t263 105zM424 73q118 0 201.5 81.5t83.5 197.5t-83.5 197.5t-201.5 81.5t-201.5 -82t-83.5 -197t83.5 -197t201.5 -82zM261 782v55h316v-55h-316z" />
    <glyph glyph-name="omacron" unicode="&#x14d;" horiz-adv-x="677" 
d="M338 551q122 0 208 -82t86 -197t-86.5 -196.5t-207.5 -81.5q-122 0 -208.5 81.5t-86.5 196.5q0 116 86.5 197.5t208.5 81.5zM338 68q88 0 150 60t62 144q0 85 -62 145t-150 60t-150.5 -60t-62.5 -145q0 -84 62.5 -144t150.5 -60zM181 631v55h316v-55h-316z" />
    <glyph glyph-name="Obreve" unicode="&#x14e;" horiz-adv-x="850" 
d="M424 710q155 0 264 -105t109 -253t-109 -253t-264 -105q-154 0 -263 105t-109 253t109 253t263 105zM424 73q118 0 201.5 81.5t83.5 197.5t-83.5 197.5t-201.5 81.5t-201.5 -82t-83.5 -197t83.5 -197t201.5 -82zM421 770q-70 0 -111.5 34t-46.5 102l55 4q12 -84 103 -84
q92 0 102 84l56 -4q-6 -68 -47.5 -102t-110.5 -34z" />
    <glyph glyph-name="obreve" unicode="&#x14f;" horiz-adv-x="677" 
d="M338 551q122 0 208 -82t86 -197t-86.5 -196.5t-207.5 -81.5q-122 0 -208.5 81.5t-86.5 196.5q0 116 86.5 197.5t208.5 81.5zM338 68q88 0 150 60t62 144q0 85 -62 145t-150 60t-150.5 -60t-62.5 -145q0 -84 62.5 -144t150.5 -60zM338 619q-70 0 -111.5 34t-46.5 102l55 4
q12 -84 103 -84q92 0 102 84l56 -4q-6 -68 -47.5 -102t-110.5 -34z" />
    <glyph glyph-name="Ohungarumlaut" unicode="&#x150;" horiz-adv-x="850" 
d="M424 710q155 0 264 -105t109 -253t-109 -253t-264 -105q-154 0 -263 105t-109 253t109 253t263 105zM424 73q118 0 201.5 81.5t83.5 197.5t-83.5 197.5t-201.5 81.5t-201.5 -82t-83.5 -197t83.5 -197t201.5 -82zM403 918l75 -25l-106 -135h-63zM559 918l79 -26l-110 -134
h-62z" />
    <glyph glyph-name="ohungarumlaut" unicode="&#x151;" horiz-adv-x="677" 
d="M338 551q122 0 208 -82t86 -197t-86.5 -196.5t-207.5 -81.5q-122 0 -208.5 81.5t-86.5 196.5q0 116 86.5 197.5t208.5 81.5zM338 68q88 0 150 60t62 144q0 85 -62 145t-150 60t-150.5 -60t-62.5 -145q0 -84 62.5 -144t150.5 -60zM316 767l75 -25l-106 -135h-63zM472 767
l79 -26l-110 -134h-62z" />
    <glyph glyph-name="OE" unicode="&#x152;" horiz-adv-x="1032" 
d="M52 352q0 147 106.5 250t257.5 103h547v-73h-406v-254h344v-72h-344v-233h427v-73h-576q-147 0 -251.5 103.5t-104.5 248.5zM473 73v559h-58q-116 0 -197 -76t-81 -204q0 -132 80 -205.5t198 -73.5h58z" />
    <glyph glyph-name="oe" unicode="&#x153;" horiz-adv-x="1131" 
d="M1085 246h-453q10 -78 69.5 -128.5t136.5 -50.5q107 0 172 79l55 -44q-38 -50 -101 -79t-140 -29q-79 0 -142 37.5t-98 100.5q-34 -63 -100.5 -100.5t-147.5 -37.5q-121 0 -206.5 81.5t-85.5 196.5q0 116 85.5 197.5t207.5 81.5q82 0 147.5 -37.5t99.5 -101.5
q35 64 97.5 101.5t142.5 37.5q120 0 191 -78.5t71 -204.5zM338 67q84 0 145.5 60.5t61.5 144.5q0 85 -61 145t-147 60q-89 0 -150 -59.5t-61 -145.5q0 -85 62 -145t150 -60zM824 483q-76 0 -128.5 -49t-62.5 -123h372q-6 77 -52.5 124.5t-128.5 47.5z" />
    <glyph glyph-name="Racute" unicode="&#x154;" horiz-adv-x="684" 
d="M550 0l-160 218q-30 -2 -47 -2h-172v-216h-86v705h289q135 0 197 -67t62 -171q0 -183 -157 -232l178 -235h-104zM171 632v-345h169q98 0 151 44.5t53 130.5q0 74 -43.5 122t-137.5 48h-192zM531 912l-174 -157h-58l139 164z" />
    <glyph glyph-name="racute" unicode="&#x155;" horiz-adv-x="435" 
d="M159 541v-106q26 53 71.5 84t106.5 32q33 0 66 -16l-6 -81q-41 16 -77 16q-74 0 -117.5 -57.5t-43.5 -138.5v-274h-83v541h83zM327 771l-174 -157h-58l139 164z" />
    <glyph glyph-name="Rcommaaccent" unicode="&#x156;" horiz-adv-x="684" 
d="M550 0l-160 218q-30 -2 -47 -2h-172v-216h-86v705h289q135 0 197 -67t62 -171q0 -183 -157 -232l178 -235h-104zM171 632v-345h169q98 0 151 44.5t53 130.5q0 74 -43.5 122t-137.5 48h-192zM355 -62q51 0 51 -70q0 -54 -31 -93t-97 -39l-12 35q80 2 83 69q-18 2 -30 16
t-12 33q0 20 14 34.5t34 14.5z" />
    <glyph glyph-name="rcommaaccent" unicode="&#x157;" horiz-adv-x="435" 
d="M159 541v-106q26 53 71.5 84t106.5 32q33 0 66 -16l-6 -81q-41 16 -77 16q-74 0 -117.5 -57.5t-43.5 -138.5v-274h-83v541h83zM120 -62q51 0 51 -70q0 -54 -31 -93t-97 -39l-12 35q80 2 83 69q-18 2 -30 16t-12 33q0 20 14 34.5t34 14.5z" />
    <glyph glyph-name="Rcaron" unicode="&#x158;" horiz-adv-x="684" 
d="M550 0l-160 218q-30 -2 -47 -2h-172v-216h-86v705h289q135 0 197 -67t62 -171q0 -183 -157 -232l178 -235h-104zM171 632v-345h169q98 0 151 44.5t53 130.5q0 74 -43.5 122t-137.5 48h-192zM305 755l-143 143h66l104 -97l104 97h67l-144 -143h-54z" />
    <glyph glyph-name="rcaron" unicode="&#x159;" horiz-adv-x="435" 
d="M159 541v-106q26 53 71.5 84t106.5 32q33 0 66 -16l-6 -81q-41 16 -77 16q-74 0 -117.5 -57.5t-43.5 -138.5v-274h-83v541h83zM200 614l-143 143h66l104 -97l104 97h67l-144 -143h-54z" />
    <glyph glyph-name="Sacute" unicode="&#x15a;" horiz-adv-x="640" 
d="M340 391q60 -14 100.5 -28.5t77 -37t54.5 -55.5t18 -78q0 -93 -71 -146.5t-190 -53.5q-89 0 -143 12t-136 53l32 66q72 -35 122.5 -46t127.5 -11q79 0 125 32t46 88q0 51 -45.5 79t-139.5 50q-50 12 -82.5 21.5t-70 26.5t-58.5 36t-35.5 49t-14.5 68q0 87 67 141t181 54
q142 0 257 -55l-36 -68q-45 22 -107.5 35.5t-114.5 13.5q-75 0 -118 -32t-43 -84q0 -51 48 -78.5t149 -51.5zM518 912l-174 -157h-58l139 164z" />
    <glyph glyph-name="sacute" unicode="&#x15b;" horiz-adv-x="529" 
d="M43 44l31 62q113 -45 199 -45q70 0 103 26t33 64q0 37 -36.5 57t-116.5 36q-99 21 -151 55.5t-52 98.5q0 67 56.5 110t144.5 43q100 0 204 -42l-28 -62q-82 36 -178 36q-55 0 -89.5 -22.5t-34.5 -58.5q0 -34 35.5 -53.5t116.5 -35.5q102 -20 154 -56t52 -102
q0 -71 -54.5 -116t-160.5 -45q-115 0 -228 50zM455 761l-174 -157h-58l139 164z" />
    <glyph glyph-name="Scircumflex" unicode="&#x15c;" horiz-adv-x="640" 
d="M340 391q60 -14 100.5 -28.5t77 -37t54.5 -55.5t18 -78q0 -93 -71 -146.5t-190 -53.5q-89 0 -143 12t-136 53l32 66q72 -35 122.5 -46t127.5 -11q79 0 125 32t46 88q0 51 -45.5 79t-139.5 50q-50 12 -82.5 21.5t-70 26.5t-58.5 36t-35.5 49t-14.5 68q0 87 67 141t181 54
q142 0 257 -55l-36 -68q-45 22 -107.5 35.5t-114.5 13.5q-75 0 -118 -32t-43 -84q0 -51 48 -78.5t149 -51.5zM144 755l143 143h54l144 -143h-67l-104 97l-104 -97h-66z" />
    <glyph glyph-name="scircumflex" unicode="&#x15d;" horiz-adv-x="529" 
d="M43 44l31 62q113 -45 199 -45q70 0 103 26t33 64q0 37 -36.5 57t-116.5 36q-99 21 -151 55.5t-52 98.5q0 67 56.5 110t144.5 43q100 0 204 -42l-28 -62q-82 36 -178 36q-55 0 -89.5 -22.5t-34.5 -58.5q0 -34 35.5 -53.5t116.5 -35.5q102 -20 154 -56t52 -102
q0 -71 -54.5 -116t-160.5 -45q-115 0 -228 50zM83 604l143 143h54l144 -143h-67l-104 97l-104 -97h-66z" />
    <glyph glyph-name="Scedilla" unicode="&#x15e;" horiz-adv-x="640" 
d="M266 -76l48 68q-81 1 -133.5 13.5t-130.5 51.5l32 66q72 -35 122.5 -46t127.5 -11q79 0 125 32t46 88q0 51 -45.5 79t-139.5 50q-50 12 -82.5 21.5t-70 26.5t-58.5 36t-35.5 49t-14.5 68q0 87 67 141t181 54q142 0 257 -55l-36 -68q-45 22 -107.5 35.5t-114.5 13.5
q-75 0 -118 -32t-43 -84q0 -51 48 -78.5t149 -51.5q60 -14 100.5 -28.5t77 -37t54.5 -55.5t18 -78q0 -85 -59 -137.5t-161 -60.5l-24 -50q20 0 34 -15.5t14 -42.5q-3 -30 -28.5 -51.5t-76.5 -21.5l-66 6l1 34q20 -5 46 -5q32 0 49 12.5t17 30.5q0 33 -70 33z" />
    <glyph glyph-name="scedilla" unicode="&#x15f;" horiz-adv-x="529" 
d="M198 -76l50 71q-106 4 -205 49l31 62q113 -45 199 -45q70 0 103 26t33 64q0 37 -36.5 57t-116.5 36q-99 21 -151 55.5t-52 98.5q0 67 56.5 110t144.5 43q100 0 204 -42l-28 -62q-82 36 -178 36q-55 0 -89.5 -22.5t-34.5 -58.5q0 -34 35.5 -53.5t116.5 -35.5
q102 -20 154 -56t52 -102t-46.5 -110t-136.5 -50l-25 -51q20 0 34 -15.5t14 -42.5q-3 -30 -28.5 -51.5t-76.5 -21.5l-66 6l1 34q20 -5 46 -5q32 0 49 12.5t17 30.5q0 33 -70 33z" />
    <glyph glyph-name="Scaron" unicode="&#x160;" horiz-adv-x="640" 
d="M340 391q60 -14 100.5 -28.5t77 -37t54.5 -55.5t18 -78q0 -93 -71 -146.5t-190 -53.5q-89 0 -143 12t-136 53l32 66q72 -35 122.5 -46t127.5 -11q79 0 125 32t46 88q0 51 -45.5 79t-139.5 50q-50 12 -82.5 21.5t-70 26.5t-58.5 36t-35.5 49t-14.5 68q0 87 67 141t181 54
q142 0 257 -55l-36 -68q-45 22 -107.5 35.5t-114.5 13.5q-75 0 -118 -32t-43 -84q0 -51 48 -78.5t149 -51.5zM286 755l-143 143h66l104 -97l104 97h67l-144 -143h-54z" />
    <glyph glyph-name="scaron" unicode="&#x161;" horiz-adv-x="529" 
d="M43 44l31 62q113 -45 199 -45q70 0 103 26t33 64q0 37 -36.5 57t-116.5 36q-99 21 -151 55.5t-52 98.5q0 67 56.5 110t144.5 43q100 0 204 -42l-28 -62q-82 36 -178 36q-55 0 -89.5 -22.5t-34.5 -58.5q0 -34 35.5 -53.5t116.5 -35.5q102 -20 154 -56t52 -102
q0 -71 -54.5 -116t-160.5 -45q-115 0 -228 50zM228 604l-143 143h66l104 -97l104 97h67l-144 -143h-54z" />
    <glyph glyph-name="Tcedilla" unicode="&#x162;" horiz-adv-x="660" 
d="M267 -76l54 76h-33v632h-241v73h570v-73h-242v-632h-1l-27 -56q20 0 34 -15.5t14 -42.5q-3 -30 -28.5 -51.5t-76.5 -21.5l-66 6l1 34q20 -5 46 -5q32 0 49 12.5t17 30.5q0 33 -70 33z" />
    <glyph glyph-name="tcedilla" unicode="&#x163;" horiz-adv-x="402" 
d="M231 -76l50 70h-14q-68 0 -112 42.5t-44 120.5v315h-89v69h89v213h84v-213h183v-69h-183v-272q0 -73 25 -103.5t79 -30.5q35 0 77 7v-63q-27 -8 -38 -10l-27 -56q20 0 34 -15.5t14 -42.5q-3 -30 -28.5 -51.5t-76.5 -21.5l-66 6l1 34q20 -5 46 -5q32 0 49 12.5t17 30.5
q0 33 -70 33z" />
    <glyph glyph-name="Tcaron" unicode="&#x164;" horiz-adv-x="660" 
d="M617 705v-73h-242v-632h-87v632h-241v73h570zM306 755l-143 143h66l104 -97l104 97h67l-144 -143h-54z" />
    <glyph glyph-name="tcaron" unicode="&#x165;" horiz-adv-x="429" 
d="M378 472h-183v-272q0 -73 25 -103.5t79 -30.5q35 0 77 7v-63q-52 -16 -109 -16q-68 0 -112 42.5t-44 120.5v315h-89v69h89v213h84v-213h183v-69zM428 763q52 0 52 -69q0 -54 -31.5 -93.5t-96.5 -39.5l-12 35q80 3 83 69q-18 3 -30.5 17t-12.5 32q0 21 14.5 35t33.5 14z
" />
    <glyph glyph-name="Tbar" unicode="&#x166;" horiz-adv-x="660" 
d="M174 345v55h114v232h-241v73h570v-73h-242v-232h115v-55h-115v-345h-87v345h-114z" />
    <glyph glyph-name="tbar" unicode="&#x167;" horiz-adv-x="402" 
d="M40 316v55h71v101h-89v69h89v213h84v-213h183v-69h-183v-101h161v-55h-161v-116q0 -73 25 -103.5t79 -30.5q35 0 77 7v-63q-52 -16 -109 -16q-68 0 -112 42.5t-44 120.5v159h-71z" />
    <glyph glyph-name="Utilde" unicode="&#x168;" horiz-adv-x="755" 
d="M674 705v-422q0 -125 -78.5 -207t-218.5 -82t-217.5 81.5t-77.5 207.5v422h84v-404q0 -106 54.5 -167.5t156.5 -61.5q103 0 158.5 61.5t55.5 167.5v404h83zM232 752l-44 5q5 61 34.5 94.5t76.5 33.5q32 0 86.5 -22.5t76.5 -22.5q23 0 41.5 18.5t25.5 52.5l44 -6
q-6 -60 -35.5 -93.5t-69.5 -33.5q-31 0 -86.5 23t-75.5 23q-56 0 -74 -72z" />
    <glyph glyph-name="utilde" unicode="&#x169;" horiz-adv-x="645" 
d="M486 541h83v-541h-83v56q-73 -62 -187 -62q-111 0 -171.5 61t-60.5 183v303h82v-303q0 -82 44.5 -126t118.5 -44q104 0 174 61v412zM173 601l-44 5q5 61 34.5 94.5t76.5 33.5q32 0 86.5 -22.5t76.5 -22.5q23 0 41.5 18.5t25.5 52.5l44 -6q-6 -60 -35.5 -93.5t-69.5 -33.5
q-31 0 -86.5 23t-75.5 23q-56 0 -74 -72z" />
    <glyph glyph-name="Umacron" unicode="&#x16a;" horiz-adv-x="755" 
d="M674 705v-422q0 -125 -78.5 -207t-218.5 -82t-217.5 81.5t-77.5 207.5v422h84v-404q0 -106 54.5 -167.5t156.5 -61.5q103 0 158.5 61.5t55.5 167.5v404h83zM220 782v55h316v-55h-316z" />
    <glyph glyph-name="umacron" unicode="&#x16b;" horiz-adv-x="645" 
d="M486 541h83v-541h-83v56q-73 -62 -187 -62q-111 0 -171.5 61t-60.5 183v303h82v-303q0 -82 44.5 -126t118.5 -44q104 0 174 61v412zM161 631v55h316v-55h-316z" />
    <glyph glyph-name="Ubreve" unicode="&#x16c;" horiz-adv-x="755" 
d="M674 705v-422q0 -125 -78.5 -207t-218.5 -82t-217.5 81.5t-77.5 207.5v422h84v-404q0 -106 54.5 -167.5t156.5 -61.5q103 0 158.5 61.5t55.5 167.5v404h83zM380 770q-70 0 -111.5 34t-46.5 102l55 4q12 -84 103 -84q92 0 102 84l56 -4q-6 -68 -47.5 -102t-110.5 -34z" />
    <glyph glyph-name="ubreve" unicode="&#x16d;" horiz-adv-x="645" 
d="M486 541h83v-541h-83v56q-73 -62 -187 -62q-111 0 -171.5 61t-60.5 183v303h82v-303q0 -82 44.5 -126t118.5 -44q104 0 174 61v412zM320 619q-70 0 -111.5 34t-46.5 102l55 4q12 -84 103 -84q92 0 102 84l56 -4q-6 -68 -47.5 -102t-110.5 -34z" />
    <glyph glyph-name="Uring" unicode="&#x16e;" horiz-adv-x="755" 
d="M674 705v-422q0 -125 -78.5 -207t-218.5 -82t-217.5 81.5t-77.5 207.5v422h84v-404q0 -106 54.5 -167.5t156.5 -61.5q103 0 158.5 61.5t55.5 167.5v404h83zM282 770q0 39 29 67.5t68 28.5t68 -28.5t29 -67.5t-29 -67.5t-68 -28.5t-68 28.5t-29 67.5zM379 714
q23 0 40 16.5t17 40.5q0 23 -17 39.5t-40 16.5t-40 -17t-17 -40t16.5 -39.5t40.5 -16.5z" />
    <glyph glyph-name="uring" unicode="&#x16f;" horiz-adv-x="645" 
d="M486 541h83v-541h-83v56q-73 -62 -187 -62q-111 0 -171.5 61t-60.5 183v303h82v-303q0 -82 44.5 -126t118.5 -44q104 0 174 61v412zM226 721q0 39 29 67.5t68 28.5t68 -28.5t29 -67.5t-29 -67.5t-68 -28.5t-68 28.5t-29 67.5zM323 665q23 0 40 16.5t17 40.5
q0 23 -17 39.5t-40 16.5t-40 -17t-17 -40t16.5 -39.5t40.5 -16.5z" />
    <glyph glyph-name="Uhungarumlaut" unicode="&#x170;" horiz-adv-x="755" 
d="M674 705v-422q0 -125 -78.5 -207t-218.5 -82t-217.5 81.5t-77.5 207.5v422h84v-404q0 -106 54.5 -167.5t156.5 -61.5q103 0 158.5 61.5t55.5 167.5v404h83zM362 918l75 -25l-106 -135h-63zM518 918l79 -26l-110 -134h-62z" />
    <glyph glyph-name="uhungarumlaut" unicode="&#x171;" horiz-adv-x="645" 
d="M486 541h83v-541h-83v56q-73 -62 -187 -62q-111 0 -171.5 61t-60.5 183v303h82v-303q0 -82 44.5 -126t118.5 -44q104 0 174 61v412zM299 767l75 -25l-106 -135h-63zM455 767l79 -26l-110 -134h-62z" />
    <glyph glyph-name="Uogonek" unicode="&#x172;" horiz-adv-x="755" 
d="M467 -121l3 -45q-32 -6 -55 -6q-92 0 -92 75q0 44 50 91q-138 1 -214.5 82.5t-76.5 206.5v422h84v-404q0 -106 54.5 -167.5t156.5 -61.5q103 0 158.5 61.5t55.5 167.5v404h83v-422q0 -111 -62 -188.5t-174 -95.5l-6.5 -6.5t-10 -11t-11.5 -14.5t-11.5 -17t-8 -17
t-3.5 -17q0 -19 13 -30t36 -11q5 0 31 4z" />
    <glyph glyph-name="uogonek" unicode="&#x173;" horiz-adv-x="645" 
d="M597 -121l3 -45q-32 -6 -55 -6q-92 0 -92 75q0 42 55 97h-22v56q-73 -62 -187 -62q-111 0 -171.5 61t-60.5 183v303h82v-303q0 -82 44.5 -126t118.5 -44q104 0 174 61v412h83v-541l-7 -7q-6 -7 -13 -15t-14.5 -18.5t-12.5 -22t-5 -21.5q0 -19 13 -30t36 -11q5 0 31 4z
" />
    <glyph glyph-name="Wcircumflex" unicode="&#x174;" horiz-adv-x="1117" 
d="M1082 705l-271 -705h-39l-217 563l-217 -563h-39l-272 705h92l202 -546l214 546h40l213 -546l202 546h92zM383 755l143 143h54l144 -143h-67l-104 97l-104 -97h-66z" />
    <glyph glyph-name="wcircumflex" unicode="&#x175;" horiz-adv-x="853" 
d="M753 541h83l-207 -541h-43l-159 416l-159 -416h-43l-209 541h84l154 -406l150 406h45l150 -406zM255 595l143 143h54l144 -143h-67l-104 97l-104 -97h-66z" />
    <glyph glyph-name="Ycircumflex" unicode="&#x176;" horiz-adv-x="671" 
d="M556 705h99l-276 -463v-242h-86v242l-276 463h98l221 -374zM166 755l143 143h54l144 -143h-67l-104 97l-104 -97h-66z" />
    <glyph glyph-name="ycircumflex" unicode="&#x177;" horiz-adv-x="613" 
d="M498 541h86l-227 -570q-17 -41 -47 -72.5t-68 -49t-78.5 -26.5t-83.5 -9q-27 0 -39 1l9 63h13q171 0 218 122h-22l-232 541h88l191 -443h18zM142 604l143 143h54l144 -143h-67l-104 97l-104 -97h-66z" />
    <glyph glyph-name="Ydieresis" unicode="&#x178;" horiz-adv-x="671" 
d="M556 705h99l-276 -463v-242h-86v242l-276 463h98l221 -374zM423 856q18 0 31.5 -13t13.5 -32t-13.5 -32t-31.5 -13q-19 0 -32.5 13t-13.5 32t13.5 32t32.5 13zM250 856q19 0 32 -13t13 -32t-13 -32t-32 -13t-32 13t-13 32t13 32t32 13z" />
    <glyph glyph-name="Zacute" unicode="&#x179;" horiz-adv-x="664" 
d="M614 705v-38l-443 -594h448v-73h-572v37l443 595h-419v73h543zM556 912l-174 -157h-58l139 164z" />
    <glyph glyph-name="zacute" unicode="&#x17a;" horiz-adv-x="582" 
d="M547 500l-380 -432h376v-68h-501v43l378 429h-361v69h488v-41zM485 761l-174 -157h-58l139 164z" />
    <glyph glyph-name="Zdotaccent" unicode="&#x17b;" horiz-adv-x="664" 
d="M614 705v-38l-443 -594h448v-73h-572v37l443 595h-419v73h543zM345 856q19 0 32 -13t13 -32t-13 -32t-32 -13t-32 13t-13 32t13 32t32 13z" />
    <glyph glyph-name="zdotaccent" unicode="&#x17c;" horiz-adv-x="582" 
d="M547 500l-380 -432h376v-68h-501v43l378 429h-361v69h488v-41zM296 705q19 0 32 -13t13 -32t-13 -32t-32 -13t-32 13t-13 32t13 32t32 13z" />
    <glyph glyph-name="Zcaron" unicode="&#x17d;" horiz-adv-x="664" 
d="M614 705v-38l-443 -594h448v-73h-572v37l443 595h-419v73h543zM316 755l-143 143h66l104 -97l104 97h67l-144 -143h-54z" />
    <glyph glyph-name="zcaron" unicode="&#x17e;" horiz-adv-x="582" 
d="M547 500l-380 -432h376v-68h-501v43l378 429h-361v69h488v-41zM273 604l-143 143h66l104 -97l104 97h67l-144 -143h-54z" />
    <glyph glyph-name="florin" unicode="&#x192;" horiz-adv-x="553" 
d="M529 730v-64q-32 15 -67 15q-103 0 -126 -119l-13 -67h149v-68h-162l-42 -224q-14 -78 -67 -120.5t-120 -42.5q-12 0 -22 1.5t-18.5 4.5t-10.5 3v67q17 -5 31 -5q107 0 131 133l35 183h-102v68h115l18 94q15 78 67.5 120.5t120.5 42.5q61 0 83 -22z" />
    <glyph glyph-name="Aringacute" unicode="&#x1fa;" 
d="M574 986l-152 -137q44 -29 44 -79q0 -30 -18 -54.5t-45 -35.5l316 -680h-90l-79 177h-363l-78 -177h-90l315 681q-27 11 -44.5 35t-17.5 54q0 39 29 67.5t68 28.5h4l108 127zM368 588l-150 -341h301zM369 714q23 0 40 16.5t17 40.5q0 23 -17 39.5t-40 16.5t-40 -17
t-17 -40t16.5 -39.5t40.5 -16.5z" />
    <glyph glyph-name="aringacute" unicode="&#x1fb;" horiz-adv-x="669" 
d="M510 541h83v-541h-83v54q-79 -60 -188 -60q-119 0 -197 82t-78 197q0 114 78 196t197 82q110 0 188 -60v50zM510 131v281q-68 65 -175 65q-89 0 -148.5 -60t-59.5 -144t60 -144.5t148 -60.5q107 0 175 63zM544 936l-152 -137q42 -30 42 -78q0 -39 -29 -67.5t-68 -28.5
t-68 28.5t-29 67.5t29 67.5t68 28.5h7l107 126zM337 665q23 0 40 16.5t17 40.5q0 23 -17 39.5t-40 16.5t-40 -17t-17 -40t16.5 -39.5t40.5 -16.5z" />
    <glyph glyph-name="AEacute" unicode="&#x1fc;" horiz-adv-x="1008" 
d="M532 73h427v-73h-510v177h-255l-91 -177h-91l369 705h557v-73h-406v-254h344v-72h-344v-233zM423 626l-196 -379h222v379h-26zM661 912l-174 -157h-58l139 164z" />
    <glyph glyph-name="aeacute" unicode="&#x1fd;" horiz-adv-x="1120" 
d="M595 0h-82v54q-81 -60 -188 -60q-117 0 -197.5 79.5t-80.5 199.5t80.5 199t197.5 79q109 0 188 -60v50h82v-93q82 103 210 103q129 0 199.5 -80.5t70.5 -204.5q0 -13 -1 -20h-458q10 -78 71 -128.5t138 -50.5q107 0 172 79l55 -44q-37 -49 -97.5 -78.5t-132.5 -29.5
q-148 0 -227 102v-96zM513 131v281q-69 66 -175 66q-88 0 -149.5 -59.5t-61.5 -145.5q0 -87 61 -146.5t150 -59.5q104 0 175 64zM811 483q-76 0 -130 -49t-64 -123h375q-6 77 -52.5 124.5t-128.5 47.5zM763 771l-174 -157h-58l139 164z" />
    <glyph glyph-name="Oslashacute" unicode="&#x1fe;" horiz-adv-x="850" 
d="M619 912l-174 -157h-58l139 164zM87 0l80 93q-115 105 -115 259q0 148 109 253t263 105q121 0 217 -68l54 63h75l-85 -98q112 -107 112 -255t-109 -253t-264 -105q-117 0 -212 65l-51 -59h-74zM139 352q0 -112 84 -193l364 420q-72 52 -163 52q-118 0 -201.5 -82
t-83.5 -197zM424 73q118 0 201.5 81.5t83.5 197.5q0 111 -81 189l-362 -419q71 -49 158 -49z" />
    <glyph glyph-name="oslashacute" unicode="&#x1ff;" horiz-adv-x="676" 
d="M532 771l-174 -157h-58l139 164zM63 0l67 76q-87 81 -87 196q0 116 86.5 197.5t208.5 81.5q92 0 169 -51l40 46h66l-69 -77q88 -80 88 -197q0 -115 -86.5 -196.5t-207.5 -81.5q-92 0 -169 51l-41 -45h-65zM338 68q88 0 150 60t62 144q0 80 -61 136l-268 -304
q50 -36 117 -36zM125 272q0 -80 60 -135l269 304q-52 36 -116 36q-88 0 -150.5 -60t-62.5 -145z" />
    <glyph glyph-name="Scommaaccent" unicode="&#x218;" horiz-adv-x="640" 
d="M340 391q60 -14 100.5 -28.5t77 -37t54.5 -55.5t18 -78q0 -93 -71 -146.5t-190 -53.5q-89 0 -143 12t-136 53l32 66q72 -35 122.5 -46t127.5 -11q79 0 125 32t46 88q0 51 -45.5 79t-139.5 50q-50 12 -82.5 21.5t-70 26.5t-58.5 36t-35.5 49t-14.5 68q0 87 67 141t181 54
q142 0 257 -55l-36 -68q-45 22 -107.5 35.5t-114.5 13.5q-75 0 -118 -32t-43 -84q0 -51 48 -78.5t149 -51.5zM328 -62q51 0 51 -70q0 -54 -31 -93t-97 -39l-12 35q80 2 83 69q-18 2 -30 16t-12 33q0 20 14 34.5t34 14.5z" />
    <glyph glyph-name="scommaaccent" unicode="&#x219;" horiz-adv-x="529" 
d="M43 44l31 62q113 -45 199 -45q70 0 103 26t33 64q0 37 -36.5 57t-116.5 36q-99 21 -151 55.5t-52 98.5q0 67 56.5 110t144.5 43q100 0 204 -42l-28 -62q-82 36 -178 36q-55 0 -89.5 -22.5t-34.5 -58.5q0 -34 35.5 -53.5t116.5 -35.5q102 -20 154 -56t52 -102
q0 -71 -54.5 -116t-160.5 -45q-115 0 -228 50zM273 -62q51 0 51 -70q0 -54 -31 -93t-97 -39l-12 35q80 2 83 69q-18 2 -30 16t-12 33q0 20 14 34.5t34 14.5z" />
    <glyph glyph-name="uni021A" unicode="&#x21a;" horiz-adv-x="660" 
d="M617 705v-73h-242v-632h-87v632h-241v73h570zM329 -62q51 0 51 -70q0 -54 -31 -93t-97 -39l-12 35q80 2 83 69q-18 2 -30 16t-12 33q0 20 14 34.5t34 14.5z" />
    <glyph glyph-name="uni021B" unicode="&#x21b;" horiz-adv-x="402" 
d="M378 472h-183v-272q0 -73 25 -103.5t79 -30.5q35 0 77 7v-63q-52 -16 -109 -16q-68 0 -112 42.5t-44 120.5v315h-89v69h89v213h84v-213h183v-69zM241 -63q51 0 51 -70q0 -54 -31 -93t-97 -39l-12 35q80 2 83 69q-18 2 -30 16t-12 33q0 20 14 34.5t34 14.5z" />
    <glyph glyph-name="dotlessj" unicode="&#x237;" horiz-adv-x="239" 
d="M77 10v531h84v-565q0 -78 -44 -120.5t-112 -42.5q-29 0 -61 6v67q8 -1 28 -1q53 0 79 29.5t26 95.5z" />
    <glyph glyph-name="circumflex" unicode="&#x2c6;" horiz-adv-x="500" 
d="M78 755l143 143h54l144 -143h-67l-104 97l-104 -97h-66z" />
    <glyph glyph-name="caron" unicode="&#x2c7;" horiz-adv-x="500" 
d="M221 755l-143 143h66l104 -97l104 97h67l-144 -143h-54z" />
    <glyph glyph-name="breve" unicode="&#x2d8;" horiz-adv-x="500" 
d="M251 770q-70 0 -111.5 34t-46.5 102l55 4q12 -84 103 -84q92 0 102 84l56 -4q-6 -68 -47.5 -102t-110.5 -34z" />
    <glyph glyph-name="dotaccent" unicode="&#x2d9;" horiz-adv-x="379" 
d="M176 856q19 0 32 -13t13 -32t-13 -32t-32 -13t-32 13t-13 32t13 32t32 13z" />
    <glyph glyph-name="ring" unicode="&#x2da;" horiz-adv-x="500" 
d="M152 770q0 39 29 67.5t68 28.5t68 -28.5t29 -67.5t-29 -67.5t-68 -28.5t-68 28.5t-29 67.5zM249 714q23 0 40 16.5t17 40.5q0 23 -17 39.5t-40 16.5t-40 -17t-17 -40t16.5 -39.5t40.5 -16.5z" />
    <glyph glyph-name="ogonek" unicode="&#x2db;" horiz-adv-x="500" 
d="M318 -121l3 -45q-31 -6 -55 -6q-92 0 -92 75q0 41 60 101l56 -4l-6 -7q-7 -7 -14 -15t-14.5 -18.5t-12.5 -22t-5 -21.5q0 -19 13 -30t36 -11q5 0 31 4z" />
    <glyph glyph-name="tilde" unicode="&#x2dc;" horiz-adv-x="500" 
d="M99 752l-44 5q5 61 34.5 94.5t76.5 33.5q32 0 86.5 -22.5t76.5 -22.5q23 0 41.5 18.5t25.5 52.5l44 -6q-6 -60 -35.5 -93.5t-69.5 -33.5q-31 0 -86.5 23t-75.5 23q-56 0 -74 -72z" />
    <glyph glyph-name="hungarumlaut" unicode="&#x2dd;" horiz-adv-x="500" 
d="M169 918l75 -25l-106 -135h-63zM325 918l79 -26l-110 -134h-62z" />
    <glyph glyph-name="uni037E" unicode="&#x37e;" horiz-adv-x="220" 
d="M108 436q-22 0 -37 14.5t-15 36.5t15 37t37 15q21 0 36.5 -15t15.5 -37q0 -21 -15.5 -36t-36.5 -15zM107 98q25 0 39 -16.5t14 -47.5q0 -71 -34 -115.5t-96 -45.5l-12 36q32 3 57 27.5t26 58.5q-19 2 -32 17t-13 34q0 22 15 37t36 15z" />
    <glyph glyph-name="tonos" unicode="&#x384;" horiz-adv-x="413" 
d="M360 706l-181 -158h-61l149 166z" />
    <glyph glyph-name="dieresistonos" unicode="&#x385;" horiz-adv-x="570" 
d="M129 698q19 0 32 -13t13 -32t-13 -32t-32 -13t-32.5 13t-13.5 32t13.5 32t32.5 13zM439 698q18 0 31.5 -13t13.5 -32t-13.5 -32t-31.5 -13q-19 0 -32.5 13t-13.5 32t13.5 32t32.5 13zM245 589l61 193l67 -14l-78 -179h-50z" />
    <glyph glyph-name="Alphatonos" unicode="&#x386;" 
d="M629 0l-79 177h-363l-78 -177h-90l326 705h47l327 -705h-90zM368 588l-150 -341h301zM251 706l-181 -158h-61l149 166z" />
    <glyph glyph-name="anoteleia" unicode="&#x387;" horiz-adv-x="203" 
d="M144 481q0 -22 -15 -37t-37 -15t-37 15t-15 37t15 37t37 15t37 -15t15 -37z" />
    <glyph glyph-name="Epsilontonos" unicode="&#x388;" horiz-adv-x="644" 
d="M27 706l-181 -158h-61l149 166zM168 73h427v-73h-510v705h489v-73h-406v-254h344v-72h-344v-233z" />
    <glyph glyph-name="Etatonos" unicode="&#x389;" 
d="M568 705h84v-705h-84v271h-400v-271h-83v705h83v-361h400v361zM27 706l-181 -158h-61l149 166z" />
    <glyph glyph-name="Iotatonos" unicode="&#x38a;" horiz-adv-x="259" 
d="M173 705v-705h-87v705h87zM27 706l-181 -158h-61l149 166z" />
    <glyph glyph-name="Omicrontonos" unicode="&#x38c;" horiz-adv-x="850" 
d="M119 706l-181 -158h-61l149 166zM424 710q155 0 264 -105t109 -253t-109 -253t-264 -105q-154 0 -263 105t-109 253t109 253t263 105zM424 73q118 0 201.5 81.5t83.5 197.5t-83.5 197.5t-201.5 81.5t-201.5 -82t-83.5 -197t83.5 -197t201.5 -82z" />
    <glyph glyph-name="Upsilontonos" unicode="&#x38e;" horiz-adv-x="671" 
d="M-13 706l-181 -158h-61l149 166zM556 705h99l-276 -463v-242h-86v242l-276 463h98l221 -374z" />
    <glyph glyph-name="Omegatonos" unicode="&#x38f;" horiz-adv-x="836" 
d="M784 366q0 -104 -54.5 -181t-128.5 -113h172v-72h-291v78q35 9 71.5 32t69 58t53.5 87t21 111q0 130 -79 200.5t-200 70.5q-122 0 -201 -70.5t-79 -200.5q0 -77 36.5 -141.5t83.5 -99t95 -47.5v-78h-290v72h171q-74 36 -128 113t-54 181q0 169 102.5 257t263.5 88
t263.5 -88t102.5 -257zM115 706l-181 -158h-61l149 166z" />
    <glyph glyph-name="iotadieresistonos" unicode="&#x390;" horiz-adv-x="240" 
d="M78 0v541h83v-541h-83zM-31 691q19 0 32 -13t13 -32t-13 -32t-32 -13t-32.5 13t-13.5 32t13.5 32t32.5 13zM279 691q18 0 31.5 -13t13.5 -32t-13.5 -32t-31.5 -13q-19 0 -32.5 13t-13.5 32t13.5 32t32.5 13zM85 582l61 193l67 -14l-78 -179h-50z" />
    <glyph glyph-name="Alpha" unicode="&#x391;" 
d="M629 0l-79 177h-363l-78 -177h-90l326 705h47l327 -705h-90zM368 588l-150 -341h301z" />
    <glyph glyph-name="Beta" unicode="&#x392;" horiz-adv-x="701" 
d="M519 562q0 -75 -52 -114q86 -9 138 -74t52 -151q0 -93 -56.5 -158t-156.5 -65h-359v705h278q65 0 110.5 -41t45.5 -102zM168 632v-176h192q41 0 61.5 27t20.5 60q0 38 -30 63.5t-76 25.5h-168zM169 73h235q80 0 122 45t42 113q0 65 -43 112.5t-120 47.5h-236v-318z" />
    <glyph glyph-name="Gamma" unicode="&#x393;" horiz-adv-x="599" 
d="M562 705v-73h-391v-632h-86v705h477z" />
    <glyph glyph-name="uni0394" unicode="&#x394;" horiz-adv-x="735" 
d="M391 705l323 -705h-693l323 705h47zM367 585l-226 -513h452z" />
    <glyph glyph-name="Epsilon" unicode="&#x395;" horiz-adv-x="644" 
d="M168 73h427v-73h-510v705h489v-73h-406v-254h344v-72h-344v-233z" />
    <glyph glyph-name="Zeta" unicode="&#x396;" horiz-adv-x="664" 
d="M614 705v-38l-443 -594h448v-73h-572v37l443 595h-419v73h543z" />
    <glyph glyph-name="Eta" unicode="&#x397;" 
d="M568 705h84v-705h-84v271h-400v-271h-83v705h83v-361h400v361z" />
    <glyph glyph-name="Theta" unicode="&#x398;" horiz-adv-x="850" 
d="M424 710q154 0 263.5 -105t109.5 -253t-109.5 -253t-263.5 -105t-263 105t-109 253t109 253t263 105zM424 73q118 0 201.5 81.5t83.5 197.5t-83.5 197.5t-201.5 81.5t-201.5 -82t-83.5 -197t83.5 -197t201.5 -82zM217 318v70h415v-70h-415z" />
    <glyph glyph-name="Iota" unicode="&#x399;" horiz-adv-x="259" 
d="M173 705v-705h-87v705h87z" />
    <glyph glyph-name="Kappa" unicode="&#x39a;" horiz-adv-x="698" 
d="M345 361l321 -361h-114l-263 298l-121 -131v-167h-83v705h83v-419l384 419h105z" />
    <glyph glyph-name="Lambda" unicode="&#x39b;" horiz-adv-x="732" 
d="M389 705l321 -705h-90l-254 581l-254 -581h-90l321 705h46z" />
    <glyph glyph-name="Mu" unicode="&#x39c;" horiz-adv-x="872" 
d="M742 705h45v-705h-86v510l-265 -416l-265 416v-510h-86v705h45l306 -468z" />
    <glyph glyph-name="Nu" unicode="&#x39d;" horiz-adv-x="773" 
d="M603 705h85v-705h-45l-472 544v-544h-86v705h45l473 -544v544z" />
    <glyph glyph-name="Xi" unicode="&#x39e;" horiz-adv-x="685" 
d="M60 72h576v-72h-576v72zM628 705v-72h-560v72h560zM580 319h-464v70h464v-70z" />
    <glyph glyph-name="Omicron" unicode="&#x39f;" horiz-adv-x="850" 
d="M424 710q155 0 264 -105t109 -253t-109 -253t-264 -105q-154 0 -263 105t-109 253t109 253t263 105zM424 73q118 0 201.5 81.5t83.5 197.5t-83.5 197.5t-201.5 81.5t-201.5 -82t-83.5 -197t83.5 -197t201.5 -82z" />
    <glyph glyph-name="Pi" unicode="&#x3a0;" horiz-adv-x="746" 
d="M85 705h576v-705h-83v633h-409v-633h-84v705z" />
    <glyph glyph-name="Rho" unicode="&#x3a1;" horiz-adv-x="654" 
d="M85 705h279q134 0 196.5 -67.5t62.5 -170.5q0 -129 -76.5 -190t-209.5 -61h-166v-216h-86v705zM171 287h159q97 0 150 44.5t53 130.5q0 74 -43.5 122t-137.5 48h-181v-345z" />
    <glyph glyph-name="Sigma" unicode="&#x3a3;" horiz-adv-x="657" 
d="M172 73h439v-73h-566v38l241 314l-236 315v38h558v-73h-434l209 -280z" />
    <glyph glyph-name="Tau" unicode="&#x3a4;" horiz-adv-x="660" 
d="M617 705v-73h-242v-632h-87v632h-241v73h570z" />
    <glyph glyph-name="Upsilon" unicode="&#x3a5;" horiz-adv-x="671" 
d="M556 705h99l-276 -463v-242h-86v242l-276 463h98l221 -374z" />
    <glyph glyph-name="Phi" unicode="&#x3a6;" horiz-adv-x="900" 
d="M849 363v-9q-1 -126 -98 -212.5t-225 -86.5h-34v-55h-84v55h-33q-127 2 -225.5 86.5t-98.5 212.5v9q1 122 97 210t226 88h34v44h84v-44h34q130 0 226.5 -87t96.5 -211zM492 586v-456h34q98 0 169 65t71 163q0 95 -70 161.5t-170 66.5h-34zM135 358q0 -98 70.5 -163
t168.5 -65h34v456h-34q-100 0 -169.5 -66.5t-69.5 -161.5z" />
    <glyph glyph-name="Chi" unicode="&#x3a7;" horiz-adv-x="735" 
d="M370 417l234 288h98l-277 -351l280 -354h-99l-236 291l-236 -291h-100l280 354l-276 351h98z" />
    <glyph glyph-name="Psi" unicode="&#x3a8;" horiz-adv-x="865" 
d="M717 705h83v-258q0 -121 -89 -206.5t-208 -85.5h-28v-155h-84v155h-29q-119 0 -208 85.5t-89 206.5v258h84v-258q0 -91 62 -154t151 -63h29v475h84v-475h28q90 0 152 63t62 154v258z" />
    <glyph glyph-name="uni03A9" unicode="&#x3a9;" horiz-adv-x="836" 
d="M784 366q0 -104 -54.5 -181t-128.5 -113h172v-72h-291v78q35 9 71.5 32t69 58t53.5 87t21 111q0 130 -79 200.5t-200 70.5q-122 0 -201 -70.5t-79 -200.5q0 -77 36.5 -141.5t83.5 -99t95 -47.5v-78h-290v72h171q-74 36 -128 113t-54 181q0 169 102.5 257t263.5 88
t263.5 -88t102.5 -257z" />
    <glyph glyph-name="Iotadieresis" unicode="&#x3aa;" horiz-adv-x="259" 
d="M173 705v-705h-87v705h87zM217 869q18 0 31.5 -13t13.5 -32t-13.5 -32t-31.5 -13q-19 0 -32.5 13t-13.5 32t13.5 32t32.5 13zM44 869q19 0 32 -13t13 -32t-13 -32t-32 -13t-32 13t-13 32t13 32t32 13z" />
    <glyph glyph-name="Upsilondieresis" unicode="&#x3ab;" horiz-adv-x="671" 
d="M556 705h99l-276 -463v-242h-86v242l-276 463h98l221 -374zM423 869q18 0 31.5 -13t13.5 -32t-13.5 -32t-31.5 -13q-19 0 -32.5 13t-13.5 32t13.5 32t32.5 13zM250 869q19 0 32 -13t13 -32t-13 -32t-32 -13t-32 13t-13 32t13 32t32 13z" />
    <glyph glyph-name="alphatonos" unicode="&#x3ac;" horiz-adv-x="671" 
d="M513 541h82v-541h-82v54q-81 -60 -188 -60q-116 0 -197 80t-81 199t81 198.5t197 79.5q109 0 188 -60v50zM513 131v281q-68 65 -175 65q-88 0 -148.5 -59t-60.5 -145q0 -88 60 -146.5t149 -58.5q107 0 175 63zM535 758l-181 -158h-61l149 166z" />
    <glyph glyph-name="epsilontonos" unicode="&#x3ad;" horiz-adv-x="584" 
d="M525 758l-181 -158h-61l149 166zM508 122l34 -57q-72 -37 -126 -54t-124 -17q-247 0 -247 157q0 43 27.5 77.5t77.5 49.5q-39 17 -62 50.5t-23 66.5q0 86 62 121t175 35q101 0 229 -64l-32 -54q-111 52 -187 52q-166 0 -166 -98q0 -28 28 -55.5t79 -27.5h137v-60h-159
q-49 0 -76.5 -26.5t-27.5 -58.5q0 -98 167 -98q60 0 104.5 14t109.5 47z" />
    <glyph glyph-name="etatonos" unicode="&#x3ae;" horiz-adv-x="637" 
d="M340 551q111 0 171.5 -61t60.5 -183v-307h-83v307q0 82 -44.5 126t-117.5 44q-99 0 -168 -61v-416h-83v541h83v-52q70 62 181 62zM535 758l-181 -158h-61l149 166z" />
    <glyph glyph-name="iotatonos" unicode="&#x3af;" horiz-adv-x="240" 
d="M78 0v541h83v-541h-83zM327 758l-181 -158h-61l149 166z" />
    <glyph glyph-name="upsilondieresistonos" unicode="&#x3b0;" horiz-adv-x="630" 
d="M565 541v-322q0 -102 -73.5 -163.5t-177.5 -61.5q-98 0 -173.5 60.5t-75.5 164.5v322h83v-308q0 -78 47 -122.5t119 -44.5q76 0 122 45.5t46 121.5v308h83zM163 698q19 0 32 -13t13 -32t-13 -32t-32 -13t-32.5 13t-13.5 32t13.5 32t32.5 13zM473 698q18 0 31.5 -13
t13.5 -32t-13.5 -32t-31.5 -13q-19 0 -32.5 13t-13.5 32t13.5 32t32.5 13zM279 589l61 193l67 -14l-78 -179h-50z" />
    <glyph glyph-name="alpha" unicode="&#x3b1;" horiz-adv-x="671" 
d="M513 541h82v-541h-82v54q-81 -60 -188 -60q-116 0 -197 80t-81 199t81 198.5t197 79.5q109 0 188 -60v50zM513 131v281q-68 65 -175 65q-88 0 -148.5 -59t-60.5 -145q0 -88 60 -146.5t149 -58.5q107 0 175 63z" />
    <glyph glyph-name="beta" unicode="&#x3b2;" horiz-adv-x="646" 
d="M453 420q71 -21 110 -75t39 -117q0 -111 -70.5 -172.5t-177.5 -61.5q-116 0 -195 63v-228h-83v673q0 117 65.5 187t162.5 70q103 0 166.5 -52t63.5 -146q0 -96 -81 -141zM304 689q-66 0 -105.5 -47.5t-39.5 -126.5v-70h184q48 0 80 32.5t32 86.5q0 60 -41.5 92.5
t-109.5 32.5zM342 66q77 0 127.5 42t50.5 120q0 60 -45 106t-125 46h-191v-242q70 -72 183 -72z" />
    <glyph glyph-name="gamma" unicode="&#x3b3;" horiz-adv-x="610" 
d="M501 541h86l-240 -541v-171h-84v172l-241 540h86l197 -429z" />
    <glyph glyph-name="delta" unicode="&#x3b4;" horiz-adv-x="675" 
d="M556 686h-303q9 -8 123 -99.5t127 -103.5q128 -114 128 -228q0 -112 -91 -186.5t-203 -74.5q-122 0 -208.5 77t-86.5 185q0 97 78.5 169.5t186.5 72.5q63 0 103 -21l-306 239v38h452v-68zM337 65q87 0 149.5 56.5t62.5 134.5q0 70 -62.5 122t-149.5 52q-91 0 -152 -48
t-61 -126t62.5 -134.5t150.5 -56.5z" />
    <glyph glyph-name="epsilon" unicode="&#x3b5;" horiz-adv-x="584" 
d="M508 122l34 -57q-72 -37 -126 -54t-124 -17q-247 0 -247 157q0 43 27.5 77.5t77.5 49.5q-39 17 -62 50.5t-23 66.5q0 86 62 121t175 35q101 0 229 -64l-32 -54q-111 52 -187 52q-166 0 -166 -98q0 -28 28 -55.5t79 -27.5h137v-60h-159q-49 0 -76.5 -26.5t-27.5 -58.5
q0 -98 167 -98q60 0 104.5 14t109.5 47z" />
    <glyph glyph-name="zeta" unicode="&#x3b6;" horiz-adv-x="524" 
d="M518 754v-48q-391 -314 -391 -478q0 -38 38.5 -60.5t93 -34t109 -24.5t93 -43t38.5 -77q0 -39 -25.5 -73t-63 -54.5t-59.5 -30t-36 -13.5l-28 48q127 56 127 115q0 24 -27.5 40t-69 23.5t-89.5 20t-89.5 28t-69 49t-27.5 81.5q0 100 105.5 225.5t250.5 237.5h-342v68h462
z" />
    <glyph glyph-name="eta" unicode="&#x3b7;" horiz-adv-x="637" 
d="M340 551q111 0 171.5 -61t60.5 -183v-307h-83v307q0 82 -44.5 126t-117.5 44q-99 0 -168 -61v-416h-83v541h83v-52q70 62 181 62z" />
    <glyph glyph-name="theta" unicode="&#x3b8;" horiz-adv-x="654" 
d="M328 759q119 0 199.5 -106t80.5 -281q0 -174 -80 -276t-200 -102t-200.5 102t-80.5 276q0 175 80.5 281t200.5 106zM328 63q85 0 142 77.5t59 197.5q-401 0 -402 -1q1 -122 59 -198t142 -76zM328 690q-85 0 -142 -81.5t-59 -202.5q399 1 402 1q-2 123 -60 203t-141 80z
" />
    <glyph glyph-name="iota" unicode="&#x3b9;" horiz-adv-x="240" 
d="M78 0v541h83v-541h-83z" />
    <glyph glyph-name="kappa" unicode="&#x3ba;" horiz-adv-x="609" 
d="M381 333l210 -333h-94l-172 270l-166 -157v-113h-83v541h83v-319l329 319h102z" />
    <glyph glyph-name="lambda" unicode="&#x3bb;" horiz-adv-x="610" 
d="M368 591l224 -591h-89l-170 472l-26 -22l-187 -450h-90l236 534l34 28q-22 62 -77 96.5t-118 34.5q-10 0 -30 -2v66q18 2 32 2q88 0 159 -43t102 -125z" />
    <glyph glyph-name="uni03BC" unicode="&#x3bc;" horiz-adv-x="655" 
d="M496 541h82v-541h-82v54q-71 -60 -181 -60q-108 0 -156 85v-250h-83v712h83v-303q0 -82 44.5 -126t117.5 -44q105 0 175 61v412z" />
    <glyph glyph-name="nu" unicode="&#x3bd;" horiz-adv-x="612" 
d="M501 541h89l-263 -541h-41l-264 541h89l196 -406z" />
    <glyph glyph-name="xi" unicode="&#x3be;" horiz-adv-x="521" 
d="M495 754v-56q-151 -4 -234.5 -49t-83.5 -108q0 -67 80.5 -103.5t190.5 -36.5v-59q-142 -1 -229.5 -36.5t-87.5 -91.5q0 -44 37.5 -66.5t90.5 -31t106 -17.5t90.5 -37t37.5 -79q0 -36 -23.5 -68t-55.5 -51.5t-54.5 -30t-32.5 -12.5l-38 46q46 19 81.5 47.5t35.5 59.5
q0 28 -37.5 43.5t-91 24.5t-106.5 23.5t-90.5 52t-37.5 97.5t54 103t147 63q-69 21 -110 61t-41 97q0 101 125 147h-178v68h455z" />
    <glyph glyph-name="omicron" unicode="&#x3bf;" horiz-adv-x="678" 
d="M339 551q122 0 208 -82t86 -197t-86.5 -196.5t-207.5 -81.5q-122 0 -208.5 81.5t-86.5 196.5q0 116 86.5 197.5t208.5 81.5zM339 68q88 0 150 60t62 144q0 85 -62 145t-150 60t-150.5 -60t-62.5 -145q0 -84 62.5 -144t150.5 -60z" />
    <glyph glyph-name="pi" unicode="&#x3c0;" horiz-adv-x="659" 
d="M76 541h507v-541h-83v470h-341v-470h-83v541z" />
    <glyph glyph-name="rho" unicode="&#x3c1;" horiz-adv-x="656" 
d="M325 551q118 0 202 -79.5t84 -199.5q0 -119 -81 -198.5t-197 -79.5q-109 0 -188 57v-222h-83v477q0 102 77 173.5t186 71.5zM320 68q88 0 148.5 58.5t60.5 145.5t-59.5 146t-147.5 59q-68 0 -122.5 -46t-54.5 -118v-182q68 -63 175 -63z" />
    <glyph glyph-name="uni03C2" unicode="&#x3c2;" horiz-adv-x="566" 
d="M371 53q31 -13 44 -19.5t34 -20t29.5 -30t8.5 -38.5q0 -48 -43.5 -84.5t-98.5 -52.5q-4 6 -15 23t-15 22q43 24 66 43.5t23 41.5q0 5 -1.5 10t-5 9.5t-7 8t-10 7t-11 6t-13 6t-13.5 5.5t-15 5.5t-15 5.5q-47 18 -80 33t-71.5 40t-62 52t-39.5 66t-16 86q0 113 86 193
t202 80q63 0 118 -27.5t91 -76.5l-55 -49q-26 37 -67 58t-87 21q-83 0 -144.5 -58.5t-61.5 -140.5q0 -29 7 -53t23 -44t30 -34t42.5 -29t44.5 -22.5t50.5 -22t47.5 -20.5z" />
    <glyph glyph-name="sigma" unicode="&#x3c3;" horiz-adv-x="681" 
d="M648 541v-69h-144q56 -27 91.5 -80t35.5 -126q0 -111 -85.5 -191.5t-206.5 -80.5q-122 0 -208.5 81.5t-86.5 196.5q0 113 86 191t209 78h309zM339 68q88 0 150 60t62 144q0 82 -62 140t-150 58q-89 0 -151 -58t-62 -140q0 -84 62.5 -144t150.5 -60z" />
    <glyph glyph-name="tau" unicode="&#x3c4;" horiz-adv-x="524" 
d="M497 541v-69h-192v-472h-83v472h-196v69h471z" />
    <glyph glyph-name="upsilon" unicode="&#x3c5;" horiz-adv-x="630" 
d="M565 541v-322q0 -102 -73.5 -163.5t-177.5 -61.5q-98 0 -173.5 60.5t-75.5 164.5v322h83v-308q0 -78 47 -122.5t119 -44.5q76 0 122 45.5t46 121.5v308h83z" />
    <glyph glyph-name="phi" unicode="&#x3c6;" horiz-adv-x="826" 
d="M782 267q0 -119 -98 -196t-232 -77v-165h-78v165q-134 0 -232 77t-98 196q0 88 54 159t143 107l27 -62q-66 -25 -104 -80t-38 -122q0 -89 68.5 -148t173.5 -59h6v486q33 5 61 5q70 0 130.5 -16t110 -49t78 -89.5t28.5 -131.5zM452 484v-422h6q105 0 173.5 59t68.5 148
q0 105 -68 160t-176 55h-4z" />
    <glyph glyph-name="chi" unicode="&#x3c7;" horiz-adv-x="583" 
d="M293 206l-174 -206h-92l218 273l-217 268h96l169 -206l169 206h96l-217 -268l219 -273h-94z" />
    <glyph glyph-name="psi" unicode="&#x3c8;" horiz-adv-x="811" 
d="M663 541h83v-322q0 -109 -76.5 -167t-223.5 -58v-165h-81v165q-148 0 -224 58.5t-76 166.5v322h83v-308q0 -82 54.5 -124t154.5 -43h8v546h81v-546h8q209 0 209 167v308z" />
    <glyph glyph-name="omega" unicode="&#x3c9;" horiz-adv-x="886" 
d="M591 475l3 74q107 -6 177 -80.5t70 -196.5q0 -128 -62.5 -203t-172.5 -75q-58 0 -101 32.5t-62 82.5q-20 -50 -63 -82.5t-100 -32.5q-111 0 -173.5 74.5t-62.5 203.5q0 122 70 196.5t177 80.5l2 -74q-73 -10 -120 -64.5t-47 -138.5q0 -96 41 -150t117 -54q52 0 85.5 44.5
t33.5 100.5v122h79v-122q0 -56 33 -100.5t86 -44.5q75 0 116.5 54.5t41.5 149.5q0 84 -47 138.5t-121 64.5z" />
    <glyph glyph-name="iotadieresis" unicode="&#x3ca;" horiz-adv-x="240" 
d="M78 0v541h83v-541h-83zM208 705q18 0 31.5 -13t13.5 -32t-13.5 -32t-31.5 -13q-19 0 -32.5 13t-13.5 32t13.5 32t32.5 13zM35 705q19 0 32 -13t13 -32t-13 -32t-32 -13t-32 13t-13 32t13 32t32 13z" />
    <glyph glyph-name="upsilondieresis" unicode="&#x3cb;" horiz-adv-x="630" 
d="M565 541v-322q0 -102 -73.5 -163.5t-177.5 -61.5q-98 0 -173.5 60.5t-75.5 164.5v322h83v-308q0 -78 47 -122.5t119 -44.5q76 0 122 45.5t46 121.5v308h83zM398 705q18 0 31.5 -13t13.5 -32t-13.5 -32t-31.5 -13q-19 0 -32.5 13t-13.5 32t13.5 32t32.5 13zM225 705
q19 0 32 -13t13 -32t-13 -32t-32 -13t-32 13t-13 32t13 32t32 13z" />
    <glyph glyph-name="omicrontonos" unicode="&#x3cc;" horiz-adv-x="678" 
d="M541 758l-181 -158h-61l149 166zM339 551q122 0 208 -82t86 -197t-86.5 -196.5t-207.5 -81.5q-122 0 -208.5 81.5t-86.5 196.5q0 116 86.5 197.5t208.5 81.5zM339 68q88 0 150 60t62 144q0 85 -62 145t-150 60t-150.5 -60t-62.5 -145q0 -84 62.5 -144t150.5 -60z" />
    <glyph glyph-name="upsilontonos" unicode="&#x3cd;" horiz-adv-x="630" 
d="M519 758l-181 -158h-61l149 166zM565 541v-322q0 -102 -73.5 -163.5t-177.5 -61.5q-98 0 -173.5 60.5t-75.5 164.5v322h83v-308q0 -78 47 -122.5t119 -44.5q76 0 122 45.5t46 121.5v308h83z" />
    <glyph glyph-name="omegatonos" unicode="&#x3ce;" horiz-adv-x="886" 
d="M591 475l3 74q107 -6 177 -80.5t70 -196.5q0 -128 -62.5 -203t-172.5 -75q-58 0 -101 32.5t-62 82.5q-20 -50 -63 -82.5t-100 -32.5q-111 0 -173.5 74.5t-62.5 203.5q0 122 70 196.5t177 80.5l2 -74q-73 -10 -120 -64.5t-47 -138.5q0 -96 41 -150t117 -54q52 0 85.5 44.5
t33.5 100.5v122h79v-122q0 -56 33 -100.5t86 -44.5q75 0 116.5 54.5t41.5 149.5q0 84 -47 138.5t-121 64.5zM649 758l-181 -158h-61l149 166z" />
    <glyph glyph-name="Wgrave" unicode="&#x1e80;" horiz-adv-x="1117" 
d="M1082 705l-271 -705h-39l-217 563l-217 -563h-39l-272 705h92l202 -546l214 546h40l213 -546l202 546h92zM525 755l-174 157l94 7l139 -164h-59z" />
    <glyph glyph-name="wgrave" unicode="&#x1e81;" horiz-adv-x="853" 
d="M753 541h83l-207 -541h-43l-159 416l-159 -416h-43l-209 541h84l154 -406l150 406h45l150 -406zM395 595l-174 157l94 7l139 -164h-59z" />
    <glyph glyph-name="Wacute" unicode="&#x1e82;" horiz-adv-x="1117" 
d="M1082 705l-271 -705h-39l-217 563l-217 -563h-39l-272 705h92l202 -546l214 546h40l213 -546l202 546h92zM758 912l-174 -157h-58l139 164z" />
    <glyph glyph-name="wacute" unicode="&#x1e83;" horiz-adv-x="853" 
d="M753 541h83l-207 -541h-43l-159 416l-159 -416h-43l-209 541h84l154 -406l150 406h45l150 -406zM633 752l-174 -157h-58l139 164z" />
    <glyph glyph-name="Wdieresis" unicode="&#x1e84;" horiz-adv-x="1117" 
d="M1082 705l-271 -705h-39l-217 563l-217 -563h-39l-272 705h92l202 -546l214 546h40l213 -546l202 546h92zM640 856q18 0 31.5 -13t13.5 -32t-13.5 -32t-31.5 -13q-19 0 -32.5 13t-13.5 32t13.5 32t32.5 13zM467 856q19 0 32 -13t13 -32t-13 -32t-32 -13t-32 13t-13 32
t13 32t32 13z" />
    <glyph glyph-name="wdieresis" unicode="&#x1e85;" horiz-adv-x="853" 
d="M753 541h83l-207 -541h-43l-159 416l-159 -416h-43l-209 541h84l154 -406l150 406h45l150 -406zM513 696q18 0 31.5 -13t13.5 -32t-13.5 -32t-31.5 -13q-19 0 -32.5 13t-13.5 32t13.5 32t32.5 13zM340 696q19 0 32 -13t13 -32t-13 -32t-32 -13t-32 13t-13 32t13 32t32 13
z" />
    <glyph glyph-name="Ygrave" unicode="&#x1ef2;" horiz-adv-x="671" 
d="M556 705h99l-276 -463v-242h-86v242l-276 463h98l221 -374zM300 755l-174 157l94 7l139 -164h-59z" />
    <glyph glyph-name="ygrave" unicode="&#x1ef3;" horiz-adv-x="613" 
d="M498 541h86l-227 -570q-17 -41 -47 -72.5t-68 -49t-78.5 -26.5t-83.5 -9q-27 0 -39 1l9 63h13q171 0 218 122h-22l-232 541h88l191 -443h18zM285 604l-174 157l94 7l139 -164h-59z" />
    <glyph glyph-name="endash" unicode="&#x2013;" horiz-adv-x="528" 
d="M481 367v-70h-435v70h435z" />
    <glyph glyph-name="emdash" unicode="&#x2014;" horiz-adv-x="898" 
d="M850 367v-70h-804v70h804z" />
    <glyph glyph-name="quoteleft" unicode="&#x2018;" horiz-adv-x="212" 
d="M103 503q-51 0 -51 70q0 54 31 93t97 39l12 -35q-80 -2 -83 -69q18 -2 30 -16t12 -33q0 -20 -14 -34.5t-34 -14.5z" />
    <glyph glyph-name="quoteright" unicode="&#x2019;" horiz-adv-x="201" 
d="M113 705q52 0 52 -69q0 -54 -31.5 -93.5t-96.5 -39.5l-12 35q80 3 83 69q-18 3 -30.5 17t-12.5 32q0 21 14.5 35t33.5 14z" />
    <glyph glyph-name="quotesinglbase" unicode="&#x201a;" horiz-adv-x="216" 
d="M102 98q52 0 52 -70q0 -53 -31.5 -92.5t-96.5 -39.5l-13 35q81 2 84 69q-18 2 -30.5 16t-12.5 33q0 20 14.5 34.5t33.5 14.5z" />
    <glyph glyph-name="quotedblleft" unicode="&#x201c;" horiz-adv-x="385" 
d="M274 502q-52 0 -52 69q0 54 31.5 93.5t97.5 39.5l12 -35q-80 -3 -84 -69q19 -3 31 -16.5t12 -32.5q0 -21 -14.5 -35t-33.5 -14zM97 502q-52 0 -52 69q0 54 31.5 93.5t97.5 39.5l12 -35q-81 -3 -84 -69q18 -3 30.5 -17t12.5 -32q0 -21 -14.5 -35t-33.5 -14z" />
    <glyph glyph-name="quotedblright" unicode="&#x201d;" horiz-adv-x="380" 
d="M115 705q52 0 52 -69q0 -54 -31.5 -93.5t-97.5 -39.5l-12 35q80 3 84 69q-19 3 -31 16.5t-12 32.5q0 21 14.5 35t33.5 14zM292 705q52 0 52 -69q0 -54 -31.5 -93.5t-97.5 -39.5l-12 35q81 3 84 69q-18 3 -30.5 17t-12.5 32q0 21 14.5 35t33.5 14z" />
    <glyph glyph-name="quotedblbase" unicode="&#x201e;" horiz-adv-x="377" 
d="M105 98q51 0 51 -70q0 -54 -31 -93t-97 -39l-12 35q80 2 83 69q-18 2 -30 16t-12 33q0 20 14 34.5t34 14.5zM282 98q51 0 51 -70q0 -54 -31 -93t-97 -39l-12 35q80 2 83 69q-18 2 -30 16t-12 33q0 20 14 34.5t34 14.5z" />
    <glyph glyph-name="dagger" unicode="&#x2020;" horiz-adv-x="410" 
d="M363 586v-52l-113 5h-23v-123l4 -153h-49l5 153l-1 123h-27l-111 -5v52l111 -5h26l-3 113h49l-3 -113h21z" />
    <glyph glyph-name="daggerdbl" unicode="&#x2021;" horiz-adv-x="430" 
d="M236 255l1 -101h21l115 5v-51l-115 4h-21l4 -112h-49l3 112h-23l-114 -5v52l113 -5h25v101l-2 96l2 89v101h-27l-111 -5v52l110 -5h27l-3 112h49l-4 -112h21l115 5v-52l-114 5h-22v-101l2 -89z" />
    <glyph glyph-name="bullet" unicode="&#x2022;" horiz-adv-x="410" 
d="M317 352q0 -47 -32.5 -80t-79.5 -33t-80 33t-33 80t33 79.5t80 32.5t79.5 -33t32.5 -79z" />
    <glyph glyph-name="ellipsis" unicode="&#x2026;" horiz-adv-x="603" 
d="M90 98q22 0 37 -15t15 -37t-15 -37t-37 -15q-21 0 -36.5 15t-15.5 37t15.5 37t36.5 15zM297 98q22 0 37 -15t15 -37t-15 -37t-37 -15q-21 0 -36.5 15t-15.5 37t15.5 37t36.5 15zM508 98q22 0 37 -15t15 -37t-15 -37t-37 -15t-37 15t-15 37t15 37t37 15z" />
    <glyph glyph-name="perthousand" unicode="&#x2030;" horiz-adv-x="1281" 
d="M386 516q0 -89 -50.5 -142t-125.5 -53q-76 0 -126.5 53t-50.5 142q0 90 50.5 142.5t126.5 52.5q75 0 125.5 -52.5t50.5 -142.5zM91 516q0 -62 34 -100t85 -38q50 0 84 38t34 100q0 63 -34 100.5t-84 37.5q-51 0 -85 -37.5t-34 -100.5zM668 383q75 0 125.5 -52.5
t50.5 -141.5q0 -90 -50.5 -142.5t-125.5 -52.5q-76 0 -126.5 52.5t-50.5 142.5t50.5 142t126.5 52zM668 51q50 0 84 38t34 100t-34 100t-84 38q-51 0 -85 -38t-34 -100t34 -100t85 -38zM1062 383q76 0 126.5 -52t50.5 -142t-50.5 -142.5t-126.5 -52.5q-75 0 -125.5 52.5
t-50.5 142.5q0 89 50.5 141.5t125.5 52.5zM1062 51q51 0 85 38t34 100t-34 100t-85 38q-50 0 -84 -38t-34 -100t34 -100t84 -38zM648 701h64l-483 -701h-64z" />
    <glyph glyph-name="guilsinglleft" unicode="&#x2039;" horiz-adv-x="311" 
d="M206 9l-174 257l174 257l54 -39l-152 -218l152 -217z" />
    <glyph glyph-name="guilsinglright" unicode="&#x203a;" horiz-adv-x="296" 
d="M87 523l174 -257l-174 -257l-54 40l152 217l-152 218z" />
    <glyph glyph-name="fraction" unicode="&#x2044;" horiz-adv-x="458" 
d="M449 701h65l-483 -701h-65z" />
    <glyph glyph-name="Euro" unicode="&#x20ac;" horiz-adv-x="704" 
d="M425 73q118 0 197 102l60 -49q-45 -62 -112.5 -97t-144.5 -35q-114 0 -201.5 74t-113.5 193h-73v45h66q-3 22 -3 45q0 21 3 44h-66v46h73q25 118 113 192.5t202 74.5q77 0 144.5 -35t112.5 -97l-60 -50q-78 103 -197 103q-79 0 -141 -53t-83 -135h262v-46h-274
q-3 -23 -3 -44q0 -23 3 -45h274v-45h-262q22 -83 84 -135.5t140 -52.5z" />
    <glyph glyph-name="uni2117" unicode="&#x2117;" horiz-adv-x="865" 
 />
    <glyph glyph-name="trademark" unicode="&#x2122;" horiz-adv-x="695" 
d="M287 699v-39h-112v-273h-46v273h-113v39h271zM644 699h20v-312h-44v212l-120 -169l-120 169v-212h-44v312h21l143 -200z" />
    <glyph glyph-name="Omega" unicode="&#x2126;" horiz-adv-x="836" 
d="M784 366q0 -104 -54.5 -181t-128.5 -113h172v-72h-291v78q35 9 71.5 32t69 58t53.5 87t21 111q0 130 -79 200.5t-200 70.5q-122 0 -201 -70.5t-79 -200.5q0 -77 36.5 -141.5t83.5 -99t95 -47.5v-78h-290v72h171q-74 36 -128 113t-54 181q0 169 102.5 257t263.5 88
t263.5 -88t102.5 -257z" />
    <glyph glyph-name="partialdiff" unicode="&#x2202;" horiz-adv-x="662" 
d="M331 388q-82 0 -138 -42.5t-56 -114.5t53.5 -119t147.5 -47q72 0 129 55t57 114q0 69 -57.5 111.5t-135.5 42.5zM310 640q-93 0 -181 -31l-36 65q85 37 230 37q128 0 209.5 -105t81.5 -307q0 -132 -80 -218.5t-196 -86.5q-121 0 -201 64.5t-80 171.5q0 109 79 167t193 58
q67 0 124 -27.5t82 -69.5q0 133 -62 207.5t-163 74.5z" />
    <glyph glyph-name="Delta" unicode="&#x2206;" horiz-adv-x="735" 
d="M391 705l323 -705h-693l323 705h47zM367 585l-226 -513h452z" />
    <glyph glyph-name="product" unicode="&#x220f;" horiz-adv-x="740" 
d="M85 -161v866h576v-866h-83v794h-410v-794h-83z" />
    <glyph glyph-name="summation" unicode="&#x2211;" horiz-adv-x="668" 
d="M65 705h557v-73h-434q63 -99 232 -359l-232 -361h434v-73h-557v38l257 396l-257 394v38z" />
    <glyph glyph-name="minus" unicode="&#x2212;" horiz-adv-x="528" 
d="M474 367v-70h-422v70h422z" />
    <glyph glyph-name="radical" unicode="&#x221a;" horiz-adv-x="810" 
d="M458 128l369 787h81l-432 -915h-45l-259 557h-136v69h197z" />
    <glyph glyph-name="infinity" unicode="&#x221e;" horiz-adv-x="862" 
d="M796 366q0 -84 -51.5 -131.5t-129.5 -47.5q-57 0 -100 31.5t-88 98.5q-43 -66 -87.5 -98t-99.5 -32q-79 0 -130 48t-51 131q0 84 51.5 131t129.5 47q55 0 99.5 -32t87.5 -98q44 68 87.5 99t100.5 31q79 0 130 -48t51 -130zM608 251q53 0 86 29t33 86q0 56 -33 85.5
t-86 29.5q-45 0 -78 -27.5t-70 -87.5q37 -60 70 -87.5t78 -27.5zM247 251q44 0 77.5 28.5t69.5 86.5q-36 58 -69.5 86.5t-77.5 28.5q-54 0 -87 -29.5t-33 -85.5q0 -57 33 -86t87 -29z" />
    <glyph glyph-name="integral" unicode="&#x222b;" horiz-adv-x="379" 
d="M376 744l-7 -62q-17 1 -24 1q-52 0 -66 -21t-26 -97l-90 -565q-14 -85 -31.5 -123.5t-42 -49t-75.5 -10.5q-13 0 -41 2q8 65 8 66h9q52 0 66 21t26 97l91 564q18 114 44.5 148.5t88.5 34.5z" />
    <glyph glyph-name="approxequal" unicode="&#x2248;" horiz-adv-x="626" 
d="M442 210q57 0 116 53l23 -64q-64 -60 -135 -60q-39 0 -113 27.5t-117 27.5q-71 0 -133 -43l-23 60q72 54 152 54q48 0 119 -27.5t111 -27.5zM442 499q58 0 116 52l23 -64q-65 -59 -135 -59q-39 0 -113 27.5t-117 27.5q-70 0 -133 -44l-23 61q71 53 152 53q48 0 119 -27
t111 -27z" />
    <glyph glyph-name="notequal" unicode="&#x2260;" horiz-adv-x="639" 
d="M189 40h-64l65 127h-111v70h147l113 219h-260v70h296l65 126h64l-66 -126h120v-70h-156l-112 -219h268v-70h-304z" />
    <glyph glyph-name="lessequal" unicode="&#x2264;" horiz-adv-x="628" 
d="M556 69v-69h-485v69h485zM556 682v-78l-373 -180l373 -179v-78l-485 237v40z" />
    <glyph glyph-name="greaterequal" unicode="&#x2265;" horiz-adv-x="627" 
d="M556 69v-69h-485v69h485zM71 167v78l373 179l-373 180v78l485 -238v-40z" />
    <glyph glyph-name="lozenge" unicode="&#x25ca;" horiz-adv-x="480" 
d="M220 754h33l187 -377l-187 -377h-33l-186 377zM111 377l125 -255l126 255l-126 255z" />
    <glyph glyph-name="NULL" horiz-adv-x="0" 
 />
    <glyph glyph-name="CR" horiz-adv-x="277" 
 />
    <glyph glyph-name="intelligentdesign" horiz-adv-x="967" 
d="M652 619q51 -20 82.5 -66.5t31.5 -102.5q0 -57 -31.5 -103t-82.5 -67q-21 -51 -67 -82.5t-103 -31.5t-103 31.5t-67 82.5q-51 21 -82.5 67t-31.5 103q0 56 31.5 102.5t82.5 66.5q21 51 67 82.5t103 31.5t103 -31.5t67 -82.5zM616 471q0 48 -32 85.5t-80 45.5v-131h112z
M504 297q48 9 80 46t32 85h-112v-131zM461 294v134h-69v-134h69zM461 471v134h-69v-134h69zM286 111q20 0 33.5 -13t13.5 -32t-14 -32.5t-33 -13.5t-33 13.5t-14 32.5t13.5 32t33.5 13zM678 48q5 -5 15 -10l-9 -21q-18 7 -32 24h-15v-19h-24v88h41q36 0 36 -34
q0 -19 -12 -28zM604 66q0 -18 -12 -30.5t-29 -13.5h-33v88h30q19 0 31.5 -13t12.5 -31zM492 64v46h24v-88h-11l-13 12l-34 33v-45h-24v88h11l13 -13zM398 109h24v-52q0 -27 -24 -34q-8 -3 -17 -3q-10 0 -17 3q-18 5 -23 25q0 2 -0.5 5t-0.5 4v52h24v-46q0 -21 17 -21t17 21
v46zM732 77l18 32h27l-33 -58v-29h-24v29l-33 58h27zM234 110v-20h-18v-32h17v-17h-17v-19h-24v19h-5v17h5v52h42zM286 42q9 0 15.5 7t6.5 17t-6.5 16.5t-15.5 6.5q-10 0 -16.5 -6.5t-6.5 -16.5t6.5 -17t16.5 -7zM637 -114q13 -6 13 -20q0 -10 -9 -17q-8 -4 -12 -4h-12v42
h12q5 0 8 -1zM561 43q8 0 13.5 6.5t5.5 16.5q0 9 -6 15.5t-14 6.5h-6v-45h7zM907 -144l10 -11h-6l-9 10q-1 -1 -2 -1h-6v-9h-5v42h11q7 0 10 -4q6 -5 6 -12q0 -9 -6 -13q-1 0 -3 -2zM650 90h-13v-32h11q11 0 16 9q0 1 0.5 3t0.5 4q0 16 -15 16zM629 -150q16 0 16 16
q0 17 -16 17h-8v-33h8zM87 -145l10 33h5l-14 -42h-4l-8 29l-1 5q-1 -2 -2 -5l-7 -29h-5l-13 42h4l10 -33l1 -4q1 2 1 5l8 32h5l8 -32l1 -5q1 2 1 4zM209 -145l10 33h5l-14 -42h-4l-8 29l-1 5q-1 -2 -2 -5l-7 -29h-5l-13 42h4l10 -33l1 -4q1 2 1 5l8 32h5l8 -32l1 -5q1 2 1 4
zM147 -145l10 33h5l-14 -42h-4l-8 29l-1 5q-1 -2 -1 -5l-8 -29h-5l-13 42h4l10 -33l1 -4q1 2 2 5l8 32h4l8 -32l1 -5q1 0 1 4zM817 -146v33h5v-42h-5l-22 33q-2 2 -2 3v-36h-4v42h4l22 -31q2 -2 2 -3v1zM565 -113h5v-42h-5l-22 33q-2 2 -2 3v-36h-4v42h4l22 -31l2 -4v35z
M865 -142v4h15v-11q-6 -6 -17 -6q-9 0 -15.5 6t-6.5 15t6.5 15.5t15.5 6.5t16 -7l-4 -3q-5 6 -12 6q-17 0 -17 -18q0 -7 5 -12t12 -5q8 0 12 4v5h-10zM288 -113h4v-42h-4l-23 33l-2 3v-36h-4v42h4l22 -31l3 -4v35zM765 -142v4h15v-11q-3 -6 -16 -6q-10 0 -16 6t-6 15t6 15.5
t15 6.5t16 -7l-3 -3q-5 6 -13 6q-7 0 -12 -5.5t-5 -12.5t5 -12t12 -5q8 0 12 4v5h-10zM479 -142v4h14v-11q-3 -6 -16 -6q-10 0 -16 6t-6 15t6.5 15.5t14.5 6.5q9 0 16 -7l-3 -3q-5 6 -13 6q-7 0 -12 -5.5t-5 -12.5t5.5 -12t12.5 -5t12 4v5h-10zM658 -113h26v-4h-22v-18h20
v-4h-20v-11h23v-5h-27v42zM502 -113h26v-4h-22v-18h20v-4h-20v-11h22v-5h-26v42zM341 -113h26v-4h-22v-18h20v-4h-20v-11h22v-5h-26v42zM894 -142h6h2q1 1 2 1q8 3 8 12q0 12 -12 12h-6v-25zM709 -131q11 -5 11 -12q0 -12 -13 -12q-11 0 -15 9l3 2q3 -7 12 -7q8 0 8 8
q0 6 -7 8q-13 5 -13 12q0 11 11 11q8 0 11 -7l-3 -2q-3 5 -8 5q-7 0 -7 -7q0 -5 10 -8zM314 -117h-13v4h30v-4h-13v-38h-4v38zM591 -117h-13v4h30v-4h-13v-38h-4v38zM376 -113h4v-37h20v-5h-24v42zM409 -113h4v-37h20v-5h-24v42zM244 -113h4v-42h-4v42zM729 -113h4v-42h-4
v42zM442 -113h4v-42h-4v42zM831 -152q0 4 3 4q4 0 4 -4q0 -3 -4 -3q-3 0 -3 3zM226 -152q0 4 3 4q4 0 4 -4q0 -3 -4 -3q-3 0 -3 3z" />
    </font>
</defs>
</svg>
