<?xml version="1.0" standalone="no"?>
<!DOCTYPE svg PUBLIC "-//W3C//DTD SVG 1.1//EN" "http://www.w3.org/Graphics/SVG/1.1/DTD/svg11.dtd" >
<svg xmlns="http://www.w3.org/2000/svg" xmlns:xlink="http://www.w3.org/1999/xlink" version="1.1">
<metadata>
Created by FontForge 20170731 at Fri Apr 18 01:48:01 2014
 By Aleksey,,,
Copyright (c) 2014 by Intelligent Design - Kostas Bartsokas. All rights reserved.
</metadata>
<defs>
<font id="ZonaPro-Light" horiz-adv-x="638" >
  <font-face 
    font-family="Zona Pro Light"
    font-weight="300"
    font-stretch="normal"
    units-per-em="1000"
    panose-1="2 1 4 3 4 0 2 2 0 4"
    ascent="825"
    descent="-175"
    x-height="539"
    cap-height="705"
    bbox="-239 -267 1234 988"
    underline-thickness="20"
    underline-position="-173"
    unicode-range="U+0020-FB04"
  />
<missing-glyph horiz-adv-x="500" 
 />
    <glyph glyph-name="f_igrave" unicode="f&#xec;" horiz-adv-x="579" 
d="M446 590l-141 127q-62 0 -95.5 -33t-33.5 -92v-53h319v-539h-57v490h-262v-516q0 -76 -42.5 -117.5t-108.5 -41.5q-30 0 -52 3v49q10 -1 33 -1q113 0 113 127v497h-97v49h97v60q0 41 15.5 71.5t37.5 46.5t52.5 26t54.5 12.5t50 2.5l165 -168h-48z" />
    <glyph glyph-name="f_f" unicode="ff" horiz-adv-x="736" 
d="M733 745v-47q-36 9 -82 9q-65 0 -89.5 -30t-24.5 -99v-39h187v-49h-187v-500q0 -77 -44 -117.5t-111 -40.5q-27 0 -48 3v49q18 -2 33 -2q53 0 83 31.5t30 95.5v481h-304v-517q0 -80 -45.5 -119t-117.5 -39q-4 0 -40 3v49q20 -2 33 -2q53 0 83 32t30 96v497h-97v49h97v32
q0 162 155 162q56 0 99 -12v-47q-42 10 -89 10q-58 0 -83 -28.5t-25 -88.5v-28h304v45q0 98 41.5 135.5t113.5 37.5q55 0 98 -12z" />
    <glyph glyph-name="f_i" unicode="fi" horiz-adv-x="579" 
d="M467 643q-17 0 -28.5 11.5t-11.5 27.5t11.5 28t28.5 12q16 0 27.5 -12t11.5 -28t-11.5 -27.5t-27.5 -11.5zM373 745v-47q-38 9 -82 9q-65 0 -90 -34t-25 -102v-32h319v-539h-57v490h-262v-516q0 -76 -42.5 -117.5t-108.5 -41.5q-30 0 -52 3v49q10 -1 33 -1q113 0 113 127
v497h-97v49h97v40q0 176 177 176q37 0 77 -10z" />
    <glyph glyph-name="f_l" unicode="fl" horiz-adv-x="603" 
d="M323 757q97 0 147 -51.5t50 -134.5v-571h-57v560q0 147 -140 147q-83 0 -115 -41.5t-32 -126.5h187v-49h-187v-517q0 -80 -45.5 -119t-117.5 -39q-4 0 -40 3v49q20 -2 33 -2q53 0 83 32t30 96v497h-97v49h97q0 105 46.5 161.5t157.5 56.5z" />
    <glyph glyph-name="f_f_i" unicode="ffi" horiz-adv-x="944" 
d="M832 643q-17 0 -28.5 11.5t-11.5 27.5t12 28t28 12t27.5 -12t11.5 -28t-11.5 -27.5t-27.5 -11.5zM803 0v490h-266v-500q0 -76 -43 -117.5t-109 -41.5q-23 0 -51 4v49q18 -2 33 -2q53 0 83 32t30 96v480h-304v-516q0 -76 -42.5 -117.5t-108.5 -41.5q-30 0 -52 3v49
q10 -1 33 -1q113 0 113 127v497h-97v49h97v30q0 164 160 164q53 0 94 -12v-47q-42 10 -89 10q-57 0 -82.5 -29t-25.5 -90v-26h304v38q0 104 43 142t117 38q52 0 93 -12v-47q-36 9 -82 9q-65 0 -89.5 -33.5t-24.5 -104.5v-30h323v-539h-57z" />
    <glyph glyph-name="f_f_l" unicode="ffl" horiz-adv-x="963" 
d="M684 757q83 0 139.5 -47t56.5 -139v-571h-57v560q0 74 -38 110.5t-101 36.5q-65 0 -106 -34t-41 -101v-33h187v-49h-187v-500q0 -76 -43 -117.5t-109 -41.5q-23 0 -51 4v49q18 -2 33 -2q53 0 83 31.5t30 95.5v481h-304v-517q0 -76 -43 -117.5t-108 -41.5q-22 0 -52 4v49
q20 -2 33 -2q53 0 83 32t30 96v497h-97v49h97v36q0 76 43 118t109 42q57 0 102 -14v-47q-42 10 -89 10q-49 0 -78.5 -28.5t-29.5 -81.5v-35h304v34q0 87 55.5 135.5t148.5 48.5z" />
    <glyph glyph-name=".notdef" horiz-adv-x="500" 
 />
    <glyph glyph-name=".null" horiz-adv-x="0" 
 />
    <glyph glyph-name="nonmarkingreturn" horiz-adv-x="333" 
 />
    <glyph glyph-name="space" unicode=" " horiz-adv-x="322" 
 />
    <glyph glyph-name="exclam" unicode="!" horiz-adv-x="203" 
d="M120 189h-36l-11 515h58zM103 75q16 0 27.5 -11.5t11.5 -28.5t-11 -28t-28 -11t-28 11t-11 28t11.5 28.5t27.5 11.5z" />
    <glyph glyph-name="quotedbl" unicode="&#x22;" horiz-adv-x="301" 
d="M185 435l17 265h63l-49 -265h-31zM36 435l16 265h63l-48 -265h-31z" />
    <glyph glyph-name="numbersign" unicode="#" horiz-adv-x="674" 
d="M457 515l29 166h45l-29 -166h143v-48h-150l-38 -219h155v-49h-164l-33 -194h-45l33 194h-198l-33 -194h-45l33 194h-130v49h139l37 219h-143v48h151l29 166h45l-29 -166h198zM412 248l37 219h-197l-38 -219h198z" />
    <glyph glyph-name="dollar" unicode="$" horiz-adv-x="635" 
d="M338 657v-278q58 -14 97 -27.5t76 -35.5t55 -54.5t18 -75.5q0 -88 -67 -139.5t-179 -53.5v-64h-36v64q-72 1 -121 13.5t-126 50.5l23 47q70 -34 115 -45.5t109 -12.5v285q-57 14 -94.5 27.5t-74 35.5t-54 53.5t-17.5 74.5q0 83 64.5 136t175.5 54v40h36v-42
q128 -7 217 -53l-26 -48q-77 39 -191 48zM121 525q0 -54 45.5 -83t135.5 -53v269q-84 0 -132.5 -37.5t-48.5 -95.5zM524 182q0 30 -14 53t-42 39t-57 26t-73 21v-275q85 2 135.5 38t50.5 98z" />
    <glyph glyph-name="percent" unicode="%" horiz-adv-x="899" 
d="M397 516q0 -89 -50 -141t-125 -52t-125.5 52t-50.5 141t50 141t126 52q75 0 125 -52t50 -141zM88 516q0 -69 38.5 -110.5t95.5 -41.5q56 0 94.5 41.5t38.5 110.5t-38 110.5t-95 41.5t-95.5 -41.5t-38.5 -110.5zM677 382q76 0 126 -52t50 -141t-50.5 -141t-125.5 -52
t-125 52t-50 141t50 141t125 52zM677 37q57 0 95.5 41.5t38.5 110.5t-38.5 110.5t-95.5 41.5t-95 -41.5t-38 -110.5t38.5 -110.5t94.5 -41.5zM668 701h47l-483 -701h-47z" />
    <glyph glyph-name="ampersand" unicode="&#x26;" horiz-adv-x="679" 
d="M605 309l43 -18q-66 -106 -125 -170l94 -91l-35 -33l-93 89q-99 -90 -195 -90q-119 0 -182 51t-63 128q0 123 160 187q-47 48 -69 88t-22 89q0 70 49 119t125 49q87 0 134 -48t47 -118q0 -132 -180 -197l196 -190q55 56 116 155zM292 661q-54 0 -89 -37.5t-35 -86.5
q0 -45 22 -78.5t70 -80.5q93 32 128.5 73.5t35.5 98.5q0 46 -36 78.5t-96 32.5zM294 45q82 0 162 75l-212 205q-137 -52 -137 -149q0 -54 47.5 -92.5t139.5 -38.5z" />
    <glyph glyph-name="quotesingle" unicode="'" horiz-adv-x="187" 
d="M55 435l16 265h64l-48 -265h-32z" />
    <glyph glyph-name="parenleft" unicode="(" horiz-adv-x="388" 
d="M112 304q0 -123 64.5 -219.5t181.5 -159.5l-21 -38q-132 69 -206.5 175t-74.5 242q0 135 74.5 241.5t206.5 175.5l21 -38q-117 -63 -181.5 -159.5t-64.5 -219.5z" />
    <glyph glyph-name="parenright" unicode=")" horiz-adv-x="388" 
d="M276 304q0 123 -64 219.5t-181 159.5l20 38q133 -69 207 -175.5t74 -241.5q0 -136 -74 -242t-207 -175l-20 38q117 63 181 159.5t64 219.5z" />
    <glyph glyph-name="asterisk" unicode="*" horiz-adv-x="410" 
d="M365 454l-19 -33l-127 80l6 -149h-37l6 149l-127 -81l-18 34l132 69l-133 70l19 33l127 -80l-6 149h37l-6 -149l127 81l18 -34l-132 -70z" />
    <glyph glyph-name="plus" unicode="+" horiz-adv-x="640" 
d="M569 395v-48h-224v-224h-48v224h-224v48h224v224h48v-224h224z" />
    <glyph glyph-name="comma" unicode="," horiz-adv-x="168" 
d="M80 75q16 0 28 -12.5t12 -40.5q0 -70 -35.5 -107.5t-77.5 -39.5l-9 27q28 4 53.5 29.5t25.5 64.5q-15 2 -25 13t-10 26q0 17 11.5 28.5t26.5 11.5z" />
    <glyph glyph-name="hyphen" unicode="-" horiz-adv-x="408" 
d="M360 356v-49h-312v49h312z" />
    <glyph glyph-name="period" unicode="." horiz-adv-x="158" 
d="M117 35q0 -17 -11.5 -28.5t-27.5 -11.5t-27.5 11.5t-11.5 28.5t11.5 28.5t27.5 11.5t27.5 -11.5t11.5 -28.5z" />
    <glyph glyph-name="slash" unicode="/" horiz-adv-x="441" 
d="M-28 -128l443 926h51l-443 -926h-51z" />
    <glyph glyph-name="zero" unicode="0" horiz-adv-x="730" 
d="M366 708q137 0 227.5 -96t90.5 -260t-90.5 -260t-227.5 -96q-136 0 -227 96t-91 260t91 260t227 96zM366 655q-111 0 -186.5 -83t-75.5 -220t75.5 -220t186.5 -83t186.5 83t75.5 220t-75.5 220t-186.5 83z" />
    <glyph glyph-name="one" unicode="1" horiz-adv-x="384" 
d="M228 705h37v-705h-59v648l-161 -36l-12 49z" />
    <glyph glyph-name="two" unicode="2" horiz-adv-x="624" 
d="M153 52h419v-52h-523v27q36 43 89.5 80t103 60t100.5 51.5t88 56t61 71.5t24 100q0 88 -61.5 149.5t-145.5 61.5q-83 0 -144.5 -60t-61.5 -150v-13h-53v16q0 111 76.5 185t183.5 74q106 0 183 -75.5t77 -184.5q0 -70 -28.5 -123.5t-78 -90t-100 -63.5t-112 -59t-97.5 -61
z" />
    <glyph glyph-name="three" unicode="3" horiz-adv-x="613" 
d="M555 675l-207 -257q101 -5 163 -61.5t62 -139.5q0 -104 -75 -163t-202 -59q-78 0 -130 9t-110 35l22 48q90 -40 219 -40q99 0 159 45.5t60 123.5q0 65 -54 113t-160 49h-25l-11 25l203 250h-398v52h484v-30z" />
    <glyph glyph-name="four" unicode="4" horiz-adv-x="651" 
d="M500 242h112v-52h-112v-190h-57v190h-393l-13 30l420 485h43v-463zM125 242h318v366z" />
    <glyph glyph-name="five" unicode="5" horiz-adv-x="616" 
d="M332 452q114 0 179.5 -65t65.5 -170q0 -104 -75.5 -163t-202.5 -59q-147 0 -243 39l20 49q91 -36 225 -36q99 0 159 46.5t60 126.5q0 81 -52.5 131.5t-147.5 50.5q-45 0 -105 -12.5t-100 -27.5l-28 18l2 325h455v-52h-403l-1 -234q90 33 192 33z" />
    <glyph glyph-name="six" unicode="6" horiz-adv-x="664" 
d="M355 453q110 0 186 -58.5t76 -164.5t-81 -170t-202 -64q-115 0 -195 89t-80 224q0 207 82 303.5t212 96.5q118 0 226 -71l-27 -45q-97 65 -197 65q-111 0 -176 -82.5t-65 -252.5q23 65 88.5 97.5t152.5 32.5zM352 404q-90 0 -157.5 -46.5t-67.5 -123.5q0 -68 63 -127.5
t144 -59.5q96 0 161 51t65 133q0 81 -59.5 127t-148.5 46z" />
    <glyph glyph-name="seven" unicode="7" horiz-adv-x="578" 
d="M50 705h494v-31l-347 -674h-63l336 653h-420v52z" />
    <glyph glyph-name="eight" unicode="8" horiz-adv-x="635" 
d="M320 709q102 0 168 -44.5t66 -130.5q0 -59 -34 -98t-86 -51q69 -15 114.5 -64.5t45.5 -121.5q0 -98 -77.5 -150.5t-196.5 -52.5t-197 52.5t-78 150.5q0 71 45.5 120.5t114.5 65.5q-51 11 -85 51.5t-34 97.5q0 86 66 130.5t168 44.5zM320 658q-79 0 -129.5 -32t-50.5 -93
t49 -94.5t131 -33.5q81 0 130 34.5t49 93.5q0 62 -50 93.5t-129 31.5zM320 47q94 0 156 41t62 113q0 70 -60.5 112t-157.5 42q-96 0 -157 -42.5t-61 -111.5q0 -72 62 -113t156 -41z" />
    <glyph glyph-name="nine" unicode="9" horiz-adv-x="663" 
d="M319 252q-110 0 -186.5 58.5t-76.5 164.5q0 110 78.5 172t197.5 62q115 0 193 -87t78 -226q0 -400 -290 -400q-119 0 -227 71l28 45q95 -64 196 -64q109 0 172.5 78.5t70.5 239.5q0 4 -0.5 10t-0.5 10q-16 -63 -81.5 -98.5t-151.5 -35.5zM332 302q83 0 145 48t62 121
q0 72 -65 129.5t-142 57.5q-94 0 -156.5 -49t-62.5 -135q0 -81 62.5 -126.5t156.5 -45.5z" />
    <glyph glyph-name="colon" unicode=":" horiz-adv-x="203" 
d="M98 458q-16 0 -27.5 11.5t-11.5 28.5q0 16 11.5 27.5t27.5 11.5t27.5 -11.5t11.5 -27.5q0 -17 -11.5 -28.5t-27.5 -11.5zM98 75q16 0 27.5 -11.5t11.5 -28.5t-11.5 -28.5t-27.5 -11.5t-27.5 11.5t-11.5 28.5t11.5 28.5t27.5 11.5z" />
    <glyph glyph-name="semicolon" unicode=";" horiz-adv-x="200" 
d="M98 458q-16 0 -27.5 11.5t-11.5 28.5q0 16 11.5 27.5t27.5 11.5t27.5 -11.5t11.5 -27.5q0 -17 -11.5 -28.5t-27.5 -11.5zM97 75q19 0 30 -14t11 -37q0 -66 -31.5 -106.5t-81.5 -42.5l-9 27q30 3 54 29t25 65q-15 2 -25 12.5t-10 26.5t11.5 28t25.5 12z" />
    <glyph glyph-name="less" unicode="&#x3c;" horiz-adv-x="612" 
d="M538 600v-55l-405 -196l405 -196v-55l-481 236v30z" />
    <glyph glyph-name="equal" unicode="=" horiz-adv-x="623" 
d="M73 172v49h475v-49h-475zM73 511h475v-49h-475v49z" />
    <glyph glyph-name="greater" unicode="&#x3e;" horiz-adv-x="613" 
d="M82 98v55l405 196l-405 196v55l481 -236v-30z" />
    <glyph glyph-name="question" unicode="?" horiz-adv-x="540" 
d="M236 709q118 0 188 -60t70 -165q0 -81 -64 -133t-175 -52l-4 -122h-42l-4 147l8 15h19q103 0 157 40.5t54 105.5q0 81 -57 127.5t-149 46.5q-65 0 -111 -10t-96 -36l-21 46q57 30 105.5 40t121.5 10zM228 75q16 0 27.5 -11.5t11.5 -28.5t-11.5 -28.5t-27.5 -11.5
t-27.5 11.5t-11.5 28.5t11.5 28.5t27.5 11.5z" />
    <glyph glyph-name="at" unicode="@" horiz-adv-x="965" 
d="M486 724q182 0 310.5 -128t128.5 -309q0 -98 -62 -167t-152 -69q-119 0 -119 102q0 13 1 20q-32 -50 -80.5 -79t-101.5 -29q-83 0 -137 59.5t-54 146.5q0 105 69 183t163 78q59 0 104.5 -33t64.5 -87l16 99l50 -8q-50 -305 -50 -326q0 -90 83 -90q79 0 125 59.5t46 140.5
q0 168 -118 285.5t-287 117.5t-287.5 -118t-118.5 -287t119 -287t287 -118q158 0 267 95q8 -8 14 -15t7 -8q-123 -107 -288 -107q-182 0 -311 129t-129 311t129 310.5t311 128.5zM602 328q0 64 -41.5 108t-103.5 44q-73 0 -128.5 -60t-55.5 -144q0 -68 41 -114t104 -46
q73 0 128 63t56 149z" />
    <glyph glyph-name="A" unicode="A" horiz-adv-x="723" 
d="M639 0l-85 192h-386l-84 -192h-62l321 705h37l321 -705h-62zM361 627l-171 -386h343z" />
    <glyph glyph-name="B" unicode="B" horiz-adv-x="697" 
d="M512 564q0 -75 -53 -115q87 -9 139 -74.5t52 -151.5q0 -93 -56.5 -158t-156.5 -65h-346v705h263q66 0 112 -40.5t46 -100.5zM148 653v-199h221q45 0 66.5 31t21.5 68q0 43 -33.5 71.5t-84.5 28.5h-191zM148 52h266q84 0 129.5 50.5t45.5 124.5q0 73 -46 126.5t-128 53.5
h-267v-355z" />
    <glyph glyph-name="C" unicode="C" horiz-adv-x="763" 
d="M425 52q73 0 136 30.5t107 84.5l45 -39q-52 -62 -127 -97t-161 -35q-153 0 -261 104t-108 252t108 252.5t261 104.5q85 0 160.5 -35.5t127.5 -97.5l-45 -39q-44 54 -107 85t-136 31q-128 0 -218.5 -87.5t-90.5 -213.5q0 -125 90.5 -212.5t218.5 -87.5z" />
    <glyph glyph-name="D" unicode="D" horiz-adv-x="731" 
d="M675 352q0 -140 -96.5 -241.5t-235.5 -110.5h-252v705h229q147 0 251 -103.5t104 -249.5zM148 54h190q116 9 197.5 95t81.5 203q0 124 -87 211.5t-210 87.5h-172v-597z" />
    <glyph glyph-name="E" unicode="E" 
d="M148 52h439v-52h-496v705h475v-52h-418v-285h356v-52h-356v-264z" />
    <glyph glyph-name="F" unicode="F" horiz-adv-x="622" 
d="M575 653h-427v-339h372v-52h-372v-262h-57v705h484v-52z" />
    <glyph glyph-name="G" unicode="G" horiz-adv-x="797" 
d="M410 332h322v-234q-128 -102 -305 -102q-154 0 -262.5 104t-108.5 252t108.5 252t262.5 104q171 0 279 -100l-38 -42q-93 87 -241 87q-129 0 -220.5 -88.5t-91.5 -212.5q0 -126 91.5 -214.5t220.5 -88.5q140 0 247 79v153h-264v51z" />
    <glyph glyph-name="H" unicode="H" horiz-adv-x="731" 
d="M583 705h57v-705h-57v284h-435v-284h-57v705h57v-369h435v369z" />
    <glyph glyph-name="I" unicode="I" horiz-adv-x="242" 
d="M151 705v-705h-59v705h59z" />
    <glyph glyph-name="J" unicode="J" horiz-adv-x="602" 
d="M463 705h58v-417q0 -135 -62.5 -213.5t-186.5 -78.5q-92 0 -160.5 59t-82.5 148l52 5q14 -68 66.5 -112.5t123.5 -44.5q94 0 143 61.5t49 163.5v429z" />
    <glyph glyph-name="K" unicode="K" horiz-adv-x="690" 
d="M326 363l323 -363h-79l-283 319l-139 -149v-170h-57v705h57v-452l419 452h73z" />
    <glyph glyph-name="L" unicode="L" horiz-adv-x="594" 
d="M149 51h404v-51h-462v705h58v-654z" />
    <glyph glyph-name="M" unicode="M" horiz-adv-x="873" 
d="M748 705h34v-705h-58v572l-288 -462l-287 462v-572h-58v705h33l312 -495z" />
    <glyph glyph-name="N" unicode="N" horiz-adv-x="771" 
d="M622 705h58v-705h-34l-497 594v-594h-58v705h33l498 -595v595z" />
    <glyph glyph-name="O" unicode="O" horiz-adv-x="854" 
d="M427 709q154 0 262.5 -104.5t108.5 -252.5t-108.5 -252t-262.5 -104t-263 104t-109 252t109 252.5t263 104.5zM427 51q129 0 220.5 88.5t91.5 212.5t-91.5 212.5t-220.5 88.5t-220.5 -88.5t-91.5 -212.5t91.5 -212.5t220.5 -88.5z" />
    <glyph glyph-name="P" unicode="P" horiz-adv-x="657" 
d="M91 705h273q130 0 190.5 -65.5t60.5 -164.5q0 -126 -74.5 -185.5t-202.5 -59.5h-189v-230h-58v705zM149 281h185q103 0 161.5 48t58.5 143q0 78 -47.5 129.5t-149.5 51.5h-208v-372z" />
    <glyph glyph-name="Q" unicode="Q" horiz-adv-x="854" 
d="M755 30l-29 -36l-82 69q-95 -67 -217 -67q-154 0 -263 104t-109 252t109 252.5t263 104.5t262.5 -104.5t108.5 -252.5q0 -76 -31.5 -143t-87.5 -116zM427 51q95 0 171 51l-56 47l30 36l62 -52q48 40 76 97t28 122q0 125 -91 213t-220 88t-220.5 -88.5t-91.5 -212.5
t91.5 -212.5t220.5 -88.5z" />
    <glyph glyph-name="R" unicode="R" horiz-adv-x="676" 
d="M569 0l-172 234q-23 -4 -56 -4h-192v-230h-58v705h279q130 0 190.5 -65.5t60.5 -164.5q0 -183 -165 -230l184 -245h-71zM149 653v-372h191q103 0 161.5 48t58.5 143q0 78 -47.5 129.5t-149.5 51.5h-214z" />
    <glyph glyph-name="S" unicode="S" horiz-adv-x="637" 
d="M336 380q46 -11 78.5 -21t66.5 -26.5t54.5 -35.5t33.5 -47.5t13 -63.5q0 -90 -69 -140t-186 -50q-87 0 -139 12t-134 53l23 47q75 -37 124.5 -48t127.5 -11q89 0 141.5 35t52.5 99q0 31 -14.5 54t-45 39.5t-62 27t-81.5 22.5q-49 12 -81.5 21.5t-69.5 26t-58.5 35.5
t-36 48t-14.5 65q0 83 66 135t177 52q65 0 134.5 -15t115.5 -40q-3 -6 -13 -25.5t-12 -22.5q-43 22 -107.5 36t-118.5 14q-84 0 -133 -36t-49 -95q0 -25 11.5 -45t28.5 -34t47.5 -26.5t58.5 -21t70 -18.5z" />
    <glyph glyph-name="T" unicode="T" horiz-adv-x="660" 
d="M612 705v-52h-251v-653h-59v653h-249v52h559z" />
    <glyph glyph-name="U" unicode="U" horiz-adv-x="755" 
d="M666 705v-422q0 -125 -76.5 -206t-212.5 -81t-212 80.5t-76 206.5v422h57v-411q0 -110 60.5 -176.5t170.5 -66.5q111 0 171.5 67t60.5 176v411h57z" />
    <glyph glyph-name="V" unicode="V" horiz-adv-x="760" 
d="M382 98l281 607h64l-329 -705h-31l-328 705h64z" />
    <glyph glyph-name="W" unicode="W" horiz-adv-x="1117" 
d="M1078 705l-269 -705h-29l-226 604l-226 -604h-29l-269 705h63l222 -595l223 595h32l222 -595l223 595h63z" />
    <glyph glyph-name="X" unicode="X" horiz-adv-x="702" 
d="M354 398l245 307h67l-275 -352l277 -353h-68l-246 308l-245 -308h-69l276 353l-274 352h68z" />
    <glyph glyph-name="Y" unicode="Y" horiz-adv-x="658" 
d="M569 705h68l-278 -462v-243h-59v243l-278 462h67l240 -401z" />
    <glyph glyph-name="Z" unicode="Z" horiz-adv-x="656" 
d="M603 705v-27l-468 -626h474v-52h-560v26l468 627h-442v52h528z" />
    <glyph glyph-name="bracketleft" unicode="[" horiz-adv-x="311" 
d="M286 657h-146v-740h146v-44h-194v828h194v-44z" />
    <glyph glyph-name="backslash" unicode="\" horiz-adv-x="431" 
d="M420 -128l-443 926h51l443 -926h-51z" />
    <glyph glyph-name="bracketright" unicode="]" horiz-adv-x="324" 
d="M38 -83h146v740h-146v44h194v-828h-194v44z" />
    <glyph glyph-name="asciicircum" unicode="^" horiz-adv-x="441" 
d="M87 490h-48l168 215h30l168 -215h-48l-135 173z" />
    <glyph glyph-name="underscore" unicode="_" horiz-adv-x="582" 
d="M584 -31v-38h-587v38h587z" />
    <glyph glyph-name="grave" unicode="`" horiz-adv-x="446" 
d="M279 757l-169 153l66 6l148 -159h-45z" />
    <glyph glyph-name="a" unicode="a" horiz-adv-x="668" 
d="M530 539h56v-539h-56v60q-83 -64 -202 -64q-118 0 -198.5 81.5t-80.5 195.5t80.5 195.5t198.5 81.5q120 0 202 -67v56zM530 118v307q-75 72 -195 72q-97 0 -163.5 -65.5t-66.5 -158.5t67 -159t163 -66q122 0 195 70z" />
    <glyph glyph-name="b" unicode="b" horiz-adv-x="669" 
d="M340 549q116 0 198 -79.5t82 -197.5q0 -116 -82 -196.5t-198 -80.5q-121 0 -202 65v-60h-56v754h56v-268q82 63 202 63zM333 48q96 0 163.5 65t67.5 159t-67.5 159.5t-163.5 65.5q-120 0 -195 -70v-307q75 -72 195 -72z" />
    <glyph glyph-name="c" unicode="c" horiz-adv-x="587" 
d="M502 127l37 -36q-36 -45 -88 -70t-109 -25q-122 0 -208 80.5t-86 195.5t86 196t208 81q119 0 199 -93l-39 -35q-63 76 -160 76q-98 0 -168 -65.5t-70 -159.5q0 -93 70 -158.5t168 -65.5q96 0 160 79z" />
    <glyph glyph-name="d" unicode="d" horiz-adv-x="669" 
d="M530 754h57v-754h-57v60q-80 -65 -201 -65q-116 0 -198 80.5t-82 196.5q0 118 82 197.5t198 79.5q119 0 201 -63v268zM336 48q120 0 194 72v307q-75 70 -194 70q-96 0 -163.5 -65.5t-67.5 -159.5t67.5 -159t163.5 -65z" />
    <glyph glyph-name="e" unicode="e" horiz-adv-x="633" 
d="M583 268v-16h-478q10 -89 74.5 -146.5t151.5 -57.5q58 0 108.5 22t82.5 63l39 -32q-38 -49 -100.5 -77t-137.5 -28q-120 0 -197.5 80t-77.5 196q0 117 77.5 197t197.5 80q119 0 189.5 -78t70.5 -203zM323 501q-90 0 -150 -58t-68 -145h422q-5 91 -59 147t-145 56z" />
    <glyph glyph-name="f" unicode="f" horiz-adv-x="375" 
d="M373 745v-47q-38 9 -82 9q-65 0 -90 -38t-25 -116v-14h187v-49h-187v-517q0 -72 -44.5 -115t-114.5 -43q-5 0 -44 3v49q20 -2 33 -2q113 0 113 128v497h-97v49h97v22q0 196 168 196q48 0 86 -12z" />
    <glyph glyph-name="g" unicode="g" horiz-adv-x="668" 
d="M530 539h56v-478q0 -106 -66.5 -176t-194.5 -70q-23 0 -42 0.5t-33 1t-29.5 3t-23 3.5t-23.5 5t-21 5.5t-24.5 7t-26.5 7.5l12 45q62 -18 99 -24.5t103 -6.5q102 0 155.5 50.5t56.5 124.5v21q-81 -62 -200 -62q-116 0 -198 82t-82 198q0 115 82 194t198 79q121 0 202 -65
v55zM104 276q0 -94 67.5 -160.5t163.5 -66.5q123 0 195 69v308q-74 71 -195 71q-96 0 -163.5 -64.5t-67.5 -156.5z" />
    <glyph glyph-name="h" unicode="h" 
d="M336 549q106 0 169 -61.5t63 -178.5v-309h-56v309q0 89 -51 138.5t-132 49.5q-114 0 -191 -68v-429h-56v754h56v-271q74 66 198 66z" />
    <glyph glyph-name="i" unicode="i" horiz-adv-x="225" 
d="M84 0v539h57v-539h-57zM112 643q-16 0 -27.5 11.5t-11.5 27.5q0 17 11.5 28.5t27.5 11.5t27.5 -11.5t11.5 -28.5q0 -16 -11.5 -27.5t-27.5 -11.5z" />
    <glyph glyph-name="j" unicode="j" horiz-adv-x="224" 
d="M83 -7v546h57v-565q0 -76 -43 -117.5t-109 -41.5q-30 0 -51 3v49q9 -1 33 -1q113 0 113 127zM111 643q-17 0 -28.5 11.5t-11.5 27.5t11.5 28t28.5 12q16 0 27.5 -12t11.5 -28t-11.5 -27.5t-27.5 -11.5z" />
    <glyph glyph-name="k" unicode="k" horiz-adv-x="611" 
d="M372 333l214 -333h-64l-189 290l-194 -180v-110h-57v754h57v-568l375 353h72z" />
    <glyph glyph-name="l" unicode="l" horiz-adv-x="223" 
d="M83 0v754h57v-754h-57z" />
    <glyph glyph-name="m" unicode="m" horiz-adv-x="999" 
d="M698 549q106 0 169 -61.5t63 -178.5v-309h-56v309q0 89 -51 138.5t-132 49.5q-98 0 -169 -74q22 -46 22 -114v-309h-56v309q0 89 -46.5 138.5t-120.5 49.5q-110 0 -182 -69v-428h-57v539h57v-58q71 68 189 68q120 0 177 -85q68 85 193 85z" />
    <glyph glyph-name="n" unicode="n" horiz-adv-x="640" 
d="M336 549q106 0 169 -61.5t63 -178.5v-309h-56v309q0 90 -51 139t-132 49q-114 0 -191 -69v-428h-56v539h56v-58q74 68 198 68z" />
    <glyph glyph-name="o" unicode="o" horiz-adv-x="682" 
d="M341 549q121 0 207 -81t86 -196t-86 -195.5t-207 -80.5q-122 0 -208 80.5t-86 195.5t86 196t208 81zM341 48q98 0 167.5 65.5t69.5 158.5q0 94 -69.5 159.5t-167.5 65.5t-168 -65.5t-70 -159.5q0 -93 70 -158.5t168 -65.5z" />
    <glyph glyph-name="p" unicode="p" horiz-adv-x="670" 
d="M340 549q116 0 198 -79.5t82 -196.5t-82 -197t-198 -80q-121 0 -202 62v-233h-56v714h56v-55q81 65 202 65zM333 48q96 0 163.5 65t67.5 160q0 94 -67.5 159t-163.5 65q-120 0 -195 -72v-307q73 -70 195 -70z" />
    <glyph glyph-name="q" unicode="q" horiz-adv-x="670" 
d="M532 539h56v-714h-56v233q-83 -62 -202 -62q-116 0 -198 80t-82 197t82 196.5t198 79.5q122 0 202 -65v55zM107 273q0 -95 67 -160t163 -65q122 0 195 70v307q-75 72 -195 72q-96 0 -163 -65t-67 -159z" />
    <glyph glyph-name="r" unicode="r" horiz-adv-x="434" 
d="M139 539v-118q25 60 71.5 94t109.5 34q43 0 81 -19l-8 -58q-42 18 -83 18q-77 0 -124 -61t-47 -151v-278h-57v539h57z" />
    <glyph glyph-name="s" unicode="s" horiz-adv-x="533" 
d="M47 45l22 45q112 -46 204 -46q82 0 121 30t39 75q0 42 -43 65t-129 41q-99 21 -151.5 54.5t-52.5 93.5q0 64 56.5 105t142.5 41q101 0 200 -41l-19 -44q-83 37 -182 37q-63 0 -104 -27t-41 -69q0 -39 40 -61t126 -39q104 -21 157 -55t53 -98q0 -68 -53 -112t-161 -44
q-113 0 -225 49z" />
    <glyph glyph-name="t" unicode="t" horiz-adv-x="395" 
d="M373 490h-199v-306q0 -137 113 -137q43 0 84 9v-47q-42 -13 -102 -13q-66 0 -109 41.5t-43 117.5v335h-95v49h95v215h57v-215h199v-49z" />
    <glyph glyph-name="u" unicode="u" horiz-adv-x="648" 
d="M509 539h56v-539h-56v64q-76 -68 -206 -68q-106 0 -169 61.5t-63 178.5v303h56v-303q0 -89 51 -138.5t132 -49.5q119 0 199 69v422z" />
    <glyph glyph-name="v" unicode="v" horiz-adv-x="609" 
d="M522 539h62l-264 -539h-30l-265 539h62l218 -446z" />
    <glyph glyph-name="w" unicode="w" horiz-adv-x="851" 
d="M775 539h58l-209 -539h-35l-164 447l-163 -447h-35l-209 539h58l172 -443l160 443h34l162 -443z" />
    <glyph glyph-name="x" unicode="x" horiz-adv-x="581" 
d="M293 225l-196 -225h-66l228 271l-227 268h67l194 -225l193 225h67l-227 -268l228 -271h-66z" />
    <glyph glyph-name="y" unicode="y" horiz-adv-x="610" 
d="M516 539h60l-228 -568q-26 -65 -84.5 -103.5t-130.5 -48.5q-31 -4 -90 -4l5 47h12q189 0 240 138h-27l-242 539h61l214 -473h22z" />
    <glyph glyph-name="z" unicode="z" horiz-adv-x="586" 
d="M547 510l-413 -461h411v-49h-497v32l411 458h-395v49h483v-29z" />
    <glyph glyph-name="braceleft" unicode="{" horiz-adv-x="396" 
d="M364 705v-41q-69 0 -100.5 -20.5t-31.5 -83.5v-99q0 -87 -16.5 -128t-64.5 -52q48 -11 64.5 -48.5t16.5 -123.5v-115q0 -62 32 -83t100 -21v-41q-43 0 -70.5 4t-54.5 16t-40 39.5t-13 70.5v104q0 44 -0.5 64.5t-5.5 45.5t-13.5 33.5t-26.5 18.5t-43 12t-64 2v44
q26 0 45 2t35 4t27 9.5t19 13t13 19t8 23.5t4 31.5t1.5 36.5t0.5 45v88q0 43 13 70.5t40 40t54 16t71 3.5z" />
    <glyph glyph-name="bar" unicode="|" horiz-adv-x="268" 
d="M105 -128v926h47v-926h-47z" />
    <glyph glyph-name="braceright" unicode="}" horiz-adv-x="392" 
d="M34 664v41q44 0 71 -3.5t54 -16t40 -40t13 -70.5v-88q0 -30 0.5 -45t1.5 -36.5t4 -31.5t8 -23.5t13 -19t19 -13t27 -9.5t35 -4t45 -2v-44q-39 0 -64 -2t-43 -12t-26.5 -18.5t-13.5 -33.5t-5.5 -45.5t-0.5 -64.5v-104q0 -43 -13 -70.5t-40 -39.5t-54.5 -16t-70.5 -4v41
q69 0 100.5 20.5t31.5 83.5v115q0 86 16 123.5t65 48.5q-49 11 -65 52t-16 128v99q0 63 -31.5 83.5t-100.5 20.5z" />
    <glyph glyph-name="asciitilde" unicode="~" horiz-adv-x="467" 
d="M79 241l-35 4q7 56 35 86.5t74 30.5q31 0 85.5 -23.5t78.5 -23.5t43.5 19.5t25.5 55.5l35 -5q-7 -56 -35 -86t-65 -30q-32 0 -87 23.5t-77 23.5q-62 0 -78 -75z" />
    <glyph glyph-name="exclamdown" unicode="&#xa1;" horiz-adv-x="210" 
d="M84 515h36l11 -515h-58zM103 629q-16 0 -27.5 11.5t-11.5 28.5t11 28t28 11t28 -11t11 -28t-11.5 -28.5t-27.5 -11.5z" />
    <glyph glyph-name="cent" unicode="&#xa2;" horiz-adv-x="575" 
d="M371 590l-91 -445q26 -6 56 -6q89 0 156 79l37 -35q-37 -43 -89 -68.5t-108 -25.5q-27 0 -62 7l-20 -96h-43l21 106q-85 30 -139 101t-54 160q0 125 90.5 201.5t212.5 76.5l14 69h44l-15 -74q89 -18 149 -86l-38 -33q-49 55 -121 69zM86 367q0 -71 42 -128.5t110 -82.5
l90 441q-103 -2 -172.5 -68.5t-69.5 -161.5z" />
    <glyph glyph-name="sterling" unicode="&#xa3;" horiz-adv-x="639" 
d="M604 51v-51h-561v31l110 18q-19 131 -28 245h-73v47h70q-3 44 -3 76q0 151 69 222t185 71q69 0 127.5 -34.5t91.5 -92.5l-41 -31q-27 47 -74 75t-103 28q-98 0 -147.5 -61.5t-49.5 -169.5q0 -40 4 -83h305v-47h-301q9 -95 29 -243h390z" />
    <glyph glyph-name="KB" unicode="&#xa4;" horiz-adv-x="973" 
d="M651 619q51 -20 82.5 -66.5t31.5 -102.5q0 -57 -31.5 -103t-82.5 -67q-20 -51 -66.5 -82.5t-102.5 -31.5q-57 0 -103 31.5t-67 82.5q-51 21 -82.5 67t-31.5 103q0 56 31.5 102.5t82.5 66.5q21 51 67 82.5t103 31.5q56 0 102.5 -31.5t66.5 -82.5zM503 294h35q32 0 54.5 23
t22.5 55q0 34 -24 56h-88v-134zM503 471h88q24 22 24 56q0 32 -22.5 55t-54.5 23h-35v-134zM391 363l69 -69v134h-112v-134h43v69zM348 471h112v134l-69 -69v69h-43v-134zM777 75q17 -7 17 -26q0 -11 -7 -19t-20 -8h-47v88h39q26 0 26 -19q0 -10 -8 -16zM159 66
q0 -18 -12 -31t-29 -13h-33v88h30q19 0 31.5 -13t12.5 -31zM690 66q0 -18 -12 -31t-29 -13h-33v88h30q19 0 31.5 -13t12.5 -31zM504 64v46h24v-88h-11l-47 45v-45h-24v88h11zM396 66h41v-33q-14 -11 -39 -13q-19 0 -33 13.5t-14 32.5t13.5 32t33.5 13q21 0 36 -13l-16 -16
q-9 7 -20 7q-9 0 -15.5 -6.5t-6.5 -16.5t6.5 -17.5t15.5 -7.5q6 0 14 4v4h-16v17zM238 29l9 18q15 -7 30 -7q10 0 10 6q0 5 -14 9q-33 7 -33 28q0 12 9 20t24 8t36 -7l-10 -19q-16 6 -26 6q-9 0 -9 -6q0 -5 15 -9q33 -7 33 -27q0 -29 -36 -29q-20 0 -38 9zM563 61v-20h42
v-19h-66v88h64v-20h-40v-12h27v-17h-27zM190 61v-20h42v-19h-66v88h63v-20h-39v-12h26v-17h-26zM833 77l18 32h28l-34 -58v-29h-24v29l-33 58h27zM344 22h-24v88h24v-88zM650 -134q0 -9 -6.5 -15t-14.5 -6h-12v42h12q9 0 15 -6.5t6 -14.5zM109 43h7q8 0 13.5 6.5t5.5 16.5
q0 9 -6 15.5t-14 6.5h-6v-45zM640 43h7q8 0 13.5 6.5t5.5 16.5q0 9 -6 15.5t-14 6.5h-6v-45zM907 -144l10 -11h-6l-8 9h-10v-9h-4v42h11q7 0 11.5 -5t4.5 -11q0 -11 -9 -15zM629 -151q7 0 12 5t5 12t-5 12t-12 5h-8v-34h8zM207 -149l12 37h4l-14 -42h-4l-9 35l-8 -35h-4
l-14 42h4l12 -37l8 37h4zM85 -149l12 37h4l-14 -42h-4l-9 35l-8 -35h-4l-14 42h4l12 -37l8 37h4zM145 -149l12 37h4l-14 -42h-4l-9 35l-8 -35h-4l-14 42h4l12 -37l8 37h4zM566 -148v35h4v-42h-4l-25 36v-36h-4v42h4zM819 -148v35h4v-42h-4l-25 36v-36h-4v42h4zM288 -148v35
h4v-42h-4l-25 36v-36h-4v42h4zM743 41h11q15 0 15 11q0 10 -18 10h-8v-21zM866 -142v4h14v-11q-6 -6 -16 -6t-16 6t-6 15t6.5 15.5t14.5 6.5q9 0 16 -7l-3 -3q-4 6 -13 6q-7 0 -12 -5.5t-5 -12.5t5.5 -12t12.5 -5l12 4v5h-10zM766 -142v4h14v-11q-6 -6 -16 -6t-16 6t-6 15
t6.5 15.5t14.5 6.5q9 0 16 -7l-3 -3q-5 6 -13 6q-7 0 -12 -5.5t-5 -12.5t5.5 -12t12.5 -5l12 4v5h-10zM479 -142v4h14v-11q-6 -6 -16 -6t-16 6t-6 15t6.5 15.5t14.5 6.5q9 0 16 -7l-3 -3q-5 6 -13 6q-7 0 -12 -5.5t-5 -12.5t5.5 -12t12.5 -5l12 4v5h-10zM502 -113h26v-4h-22
v-18h20v-4h-20v-12h22v-4h-26v42zM659 -113h26v-4h-22v-18h20v-4h-20v-12h22v-4h-26v42zM341 -113h26v-4h-22v-18h20v-4h-20v-12h22v-4h-26v42zM893 -142h7q12 2 12 13q0 12 -12 12h-7v-25zM708 -131q11 -4 11 -12q0 -12 -12 -12q-11 0 -15 9l3 2q3 -7 12 -7q8 0 8 8
q0 5 -8 8q-12 5 -12 12q0 11 11 11q8 0 11 -7l-3 -2q-3 5 -8 5q-7 0 -7 -7q0 -5 9 -8zM591 -117h-13v4h30v-4h-13v-38h-4v38zM314 -117h-13v4h30v-4h-13v-38h-4v38zM376 -113h4v-38h20v-4h-24v42zM409 -113h4v-38h20v-4h-24v42zM758 90h-15v-11h14q7 0 7 5q0 6 -6 6z
M244 -113h4v-42h-4v42zM729 -113h4v-42h-4v42zM442 -113h4v-42h-4v42zM830 -152q0 4 4 4t4 -4t-4 -4t-4 4zM225 -152q0 4 4 4t4 -4t-4 -4t-4 4z" />
    <glyph glyph-name="yen" unicode="&#xa5;" horiz-adv-x="703" 
d="M653 705l-241 -399h169v-44h-195l-11 -22v-18h206v-45h-206v-177h-59v177h-206v45h206v18l-11 22h-195v44h168l-240 399h67l240 -401l240 401h68z" />
    <glyph glyph-name="brokenbar" unicode="&#xa6;" horiz-adv-x="260" 
d="M107 415v383h45v-383h-45zM107 -127v383h45v-383h-45z" />
    <glyph glyph-name="section" unicode="&#xa7;" horiz-adv-x="626" 
d="M542 323q0 -31 -23 -57t-49 -38q38 -30 38 -78q0 -62 -52.5 -107.5t-148.5 -45.5q-130 0 -227 48l23 43q47 -23 87 -33.5t105 -10.5q77 0 118.5 31.5t41.5 71.5q0 16 -9.5 28.5t-30.5 22t-35 14t-44.5 12t-37.5 9.5q-12 3 -49 12.5t-53.5 14.5t-44.5 16.5t-41 22.5
t-24 29.5t-11 40.5q0 61 88 97q-67 35 -67 100q0 68 57.5 106.5t136.5 38.5q96 0 221 -43l-17 -47q-129 43 -205 43q-55 0 -97.5 -27t-42.5 -74q0 -11 3 -20t10.5 -17t15 -14t21 -12t24 -10t28.5 -9.5t30 -8.5t33 -8t33 -8q109 -28 152 -53t43 -80zM344 410q-15 4 -44 10.5
t-52 12.5t-42 13q-34 -11 -57.5 -32t-23.5 -40q0 -12 6.5 -22.5t19.5 -19t25 -15t31 -12.5t29.5 -9t27.5 -7.5t19 -4.5q139 -33 141 -34q20 4 45.5 25t25.5 47q0 29 -33 48.5t-118 39.5z" />
    <glyph glyph-name="dieresis" unicode="&#xa8;" horiz-adv-x="500" 
d="M331 845q15 0 25 -10.5t10 -25.5q0 -14 -10 -24.5t-25 -10.5t-25 10.5t-10 24.5q0 15 10 25.5t25 10.5zM169 845q15 0 25.5 -10.5t10.5 -25.5q0 -14 -10.5 -24.5t-25.5 -10.5q-14 0 -24.5 10.5t-10.5 24.5q0 15 10.5 25.5t24.5 10.5z" />
    <glyph glyph-name="copyright" unicode="&#xa9;" horiz-adv-x="830" 
d="M417 712q149 0 252 -105.5t103 -252.5t-104 -252.5t-253 -105.5t-252.5 105.5t-103.5 252.5t104 252.5t254 105.5zM744 354q0 136 -95 233t-232 97q-138 0 -233.5 -97.5t-95.5 -232.5q0 -137 95 -233.5t232 -96.5q138 0 233.5 97.5t95.5 232.5zM418 183q78 0 128 65
q30 -25 31 -26q-60 -78 -159 -78q-85 0 -145 61.5t-60 148.5t60 148t145 61q99 0 159 -78q-1 -1 -31 -26q-49 65 -128 65q-68 0 -116 -50t-48 -120t48 -120.5t116 -50.5z" />
    <glyph glyph-name="ordfeminine" unicode="&#xaa;" horiz-adv-x="483" 
d="M376 691h44v-369h-44v28q-56 -37 -130 -37q-82 0 -138 57t-56 136q0 80 56 136.5t138 56.5q72 0 130 -38v30zM376 396v218q-46 43 -125 43q-65 0 -110 -44t-45 -107q0 -62 45 -106.5t110 -44.5q74 0 125 41z" />
    <glyph glyph-name="guillemotleft" unicode="&#xab;" horiz-adv-x="533" 
d="M447 9l-173 257l173 257l38 -28l-158 -229l158 -229zM227 9l-174 257l174 257l37 -28l-158 -229l158 -229z" />
    <glyph glyph-name="logicalnot" unicode="&#xac;" horiz-adv-x="594" 
d="M538 459v-214h-50v164h-446v50h496z" />
    <glyph glyph-name="uni00AD" unicode="&#xad;" horiz-adv-x="408" 
d="M360 356v-49h-312v49h312z" />
    <glyph glyph-name="registered" unicode="&#xae;" horiz-adv-x="830" 
d="M417 712q149 0 252 -105.5t103 -252.5t-104 -252.5t-253 -105.5t-252 105.5t-103 252.5t104 252.5t253 105.5zM744 354q0 136 -95 233t-232 97q-138 0 -233.5 -97.5t-95.5 -232.5q0 -137 95 -233.5t232 -96.5q138 0 233.5 97.5t95.5 232.5zM589 172l-31 -27l-112 143
q-9 -1 -28 -1h-105v-133h-41v406h161q75 0 110 -37.5t35 -94.5q0 -101 -89 -130zM313 523v-202h103q120 0 120 104q0 42 -26 70t-81 28h-116z" />
    <glyph glyph-name="macron" unicode="&#xaf;" horiz-adv-x="500" 
d="M92 788v42h316v-42h-316z" />
    <glyph glyph-name="degree" unicode="&#xb0;" horiz-adv-x="472" 
d="M236 364q-74 0 -128 52.5t-54 125.5q0 72 54.5 125t127.5 53t127.5 -53t54.5 -127q0 -72 -54 -124t-128 -52zM236 401q59 0 101.5 41t42.5 98q0 59 -43 101t-101 42t-101 -42t-43 -99q0 -58 42.5 -99.5t101.5 -41.5z" />
    <glyph glyph-name="plusminus" unicode="&#xb1;" horiz-adv-x="640" 
d="M569 452v-48h-224v-224h-48v224h-224v48h224v224h48v-224h224zM569 0h-496v49h496v-49z" />
    <glyph glyph-name="twosuperior" unicode="&#xb2;" horiz-adv-x="415" 
d="M119 336h241v-37h-314v18q23 35 72 67.5t92 52.5t76 52t33 70q0 50 -36 84t-85 34t-81.5 -36t-32.5 -90h-38v9q0 66 44.5 110.5t107.5 44.5q65 0 112 -44.5t47 -110.5q0 -45 -28.5 -80.5t-64 -54.5t-80.5 -43.5t-65 -45.5z" />
    <glyph glyph-name="threesuperior" unicode="&#xb3;" horiz-adv-x="415" 
d="M344 686l-122 -149q57 -5 93.5 -35.5t36.5 -77.5q0 -61 -44.5 -96t-118.5 -35q-89 0 -155 30q12 24 15 33q61 -26 141 -26q55 0 89 25t34 69q0 38 -34.5 61t-89.5 23h-16l-8 15l116 145h-226v36h289v-18z" />
    <glyph glyph-name="acute" unicode="&#xb4;" horiz-adv-x="500" 
d="M375 910l-169 -153h-45l148 159z" />
    <glyph glyph-name="mu" unicode="&#xb5;" horiz-adv-x="659" 
d="M520 539h56v-539h-56v63q-75 -67 -202 -67q-60 0 -107.5 26t-72.5 75v-266h-56v709h56v-304q0 -90 51 -139t132 -49q119 0 199 69v422z" />
    <glyph glyph-name="paragraph" unicode="&#xb6;" horiz-adv-x="558" 
d="M267 700h219v-700h-47v647h-100v-647h-48v268h-21q-107 0 -173.5 56.5t-66.5 158.5q0 104 64 160.5t173 56.5zM291 323v324h-21q-81 0 -131 -42t-50 -119q0 -74 52 -118.5t129 -44.5h21z" />
    <glyph glyph-name="periodcentered" unicode="&#xb7;" horiz-adv-x="182" 
d="M128 313q0 -16 -11.5 -27.5t-28.5 -11.5q-16 0 -27.5 11.5t-11.5 27.5t11.5 27.5t27.5 11.5q17 0 28.5 -11.5t11.5 -27.5z" />
    <glyph glyph-name="cedilla" unicode="&#xb8;" horiz-adv-x="429" 
d="M177 -75l50 76h38l-28 -59q23 0 38.5 -15t15.5 -40q0 -30 -25.5 -51.5t-76.5 -21.5q-15 0 -29.5 2t-21.5 4l-7 1l3 28q30 -7 50 -7q31 0 48 14t17 33q0 36 -72 36z" />
    <glyph glyph-name="onesuperior" unicode="&#xb9;" horiz-adv-x="343" 
d="M210 705h17v-406h-40v364l-98 -22l-9 35z" />
    <glyph glyph-name="ordmasculine" unicode="&#xba;" horiz-adv-x="507" 
d="M249 701q85 0 145 -56.5t60 -137.5q0 -80 -60 -136.5t-145 -56.5t-145 56.5t-60 136.5q0 81 59.5 137.5t145.5 56.5zM249 356q66 0 113.5 44.5t47.5 106.5q0 63 -47.5 107.5t-113.5 44.5q-67 0 -114 -44.5t-47 -107.5q0 -62 47 -106.5t114 -44.5z" />
    <glyph glyph-name="guillemotright" unicode="&#xbb;" horiz-adv-x="530" 
d="M487 266l-174 -257l-37 28l158 229l-158 229l37 28zM267 266l-174 -257l-38 28l158 229l-158 229l38 28z" />
    <glyph glyph-name="onequarter" unicode="&#xbc;" horiz-adv-x="850" 
d="M197 705h17v-406h-40v364l-98 -22l-9 35zM707 138h82v-36h-82v-102h-39v102h-219l-12 27l240 278h30v-269zM668 138v204l-178 -204h178zM621 701h47l-483 -701h-47z" />
    <glyph glyph-name="onehalf" unicode="&#xbd;" horiz-adv-x="900" 
d="M197 705h17v-406h-40v364l-98 -22l-9 35zM584 37h245v-37h-314v18q22 38 70.5 71t92 52.5t77 50.5t33.5 68q0 50 -36.5 84t-85.5 34q-46 0 -80 -33t-34 -85v-8h-37v9q0 66 44.5 110.5t107.5 44.5q65 0 112 -44.5t47 -110.5q0 -46 -30 -81.5t-68 -53.5t-81.5 -42
t-62.5 -47zM621 701h47l-483 -701h-47z" />
    <glyph glyph-name="threequarters" unicode="&#xbe;" horiz-adv-x="883" 
d="M755 138h82v-36h-82v-102h-39v102h-220l-11 27l240 278h30v-269zM716 138v204l-178 -204h178zM55 704h289v-18l-122 -149q57 -5 93.5 -35.5t36.5 -77.5q0 -61 -44.5 -96t-118.5 -35q-89 0 -155 30l15 33q61 -26 141 -26q55 0 89 25t34 69q0 38 -34.5 61t-89.5 23h-16
l-8 15l116 145h-226v36zM669 701h47l-483 -701h-47z" />
    <glyph glyph-name="questiondown" unicode="&#xbf;" horiz-adv-x="540" 
d="M304 -5q-118 0 -188 60t-70 165q0 81 64 133t175 52l4 122h42l4 -147l-8 -15h-19q-103 0 -157 -40.5t-54 -105.5q0 -81 57 -127.5t149 -46.5q65 0 111 10t96 36l21 -46q-57 -30 -105.5 -40t-121.5 -10zM312 629q-16 0 -27.5 11.5t-11.5 28.5t11.5 28.5t27.5 11.5
t27.5 -11.5t11.5 -28.5t-11.5 -28.5t-27.5 -11.5z" />
    <glyph glyph-name="Agrave" unicode="&#xc0;" horiz-adv-x="723" 
d="M639 0l-85 192h-386l-84 -192h-62l321 705h37l321 -705h-62zM361 627l-171 -386h343zM340 757l-169 153l66 6l148 -159h-45z" />
    <glyph glyph-name="Aacute" unicode="&#xc1;" horiz-adv-x="723" 
d="M639 0l-85 192h-386l-84 -192h-62l321 705h37l321 -705h-62zM361 627l-171 -386h343zM556 910l-169 -153h-45l148 159z" />
    <glyph glyph-name="Acircumflex" unicode="&#xc2;" horiz-adv-x="723" 
d="M639 0l-85 192h-386l-84 -192h-62l321 705h37l321 -705h-62zM361 627l-171 -386h343zM199 757l143 138h38l144 -138h-53l-110 100l-109 -100h-53z" />
    <glyph glyph-name="Atilde" unicode="&#xc3;" horiz-adv-x="723" 
d="M639 0l-85 192h-386l-84 -192h-62l321 705h37l321 -705h-62zM361 627l-171 -386h343zM209 757l-35 4q7 57 35 87t74 30q31 0 85.5 -23.5t78.5 -23.5t43.5 19.5t25.5 55.5l35 -5q-7 -55 -35 -85t-65 -30q-32 0 -87 23.5t-77 23.5q-61 0 -78 -76z" />
    <glyph glyph-name="Adieresis" unicode="&#xc4;" horiz-adv-x="723" 
d="M639 0l-85 192h-386l-84 -192h-62l321 705h37l321 -705h-62zM361 627l-171 -386h343zM441 845q15 0 25 -10.5t10 -25.5q0 -14 -10 -24.5t-25 -10.5t-25 10.5t-10 24.5q0 15 10 25.5t25 10.5zM279 845q15 0 25.5 -10.5t10.5 -25.5q0 -14 -10.5 -24.5t-25.5 -10.5
q-14 0 -24.5 10.5t-10.5 24.5q0 15 10.5 25.5t24.5 10.5z" />
    <glyph glyph-name="Aring" unicode="&#xc5;" horiz-adv-x="723" 
d="M271 770q0 36 27 62.5t63 26.5t63 -26.5t27 -62.5q0 -29 -17.5 -52.5t-44.5 -32.5l312 -685h-62l-85 192h-386l-84 -192h-62l312 685q-27 8 -45 32t-18 53zM361 627l-171 -386h343zM361 714q23 0 40 16.5t17 39.5t-17 40t-40 17t-40 -17t-17 -40t17 -39.5t40 -16.5z" />
    <glyph glyph-name="AE" unicode="&#xc6;" horiz-adv-x="994" 
d="M504 52h439v-52h-496v192h-267l-101 -192h-63l375 705h531v-52h-418v-285h356v-52h-356v-264zM421 649l-217 -408h243v408h-26z" />
    <glyph glyph-name="Ccedilla" unicode="&#xc7;" horiz-adv-x="763" 
d="M354 -75l47 72q-145 9 -245 111.5t-100 243.5q0 148 108 252.5t261 104.5q85 0 160.5 -35.5t127.5 -97.5l-45 -39q-44 54 -107 85t-136 31q-128 0 -218.5 -87.5t-90.5 -213.5q0 -125 90.5 -212.5t218.5 -87.5q73 0 136 30.5t107 84.5l45 -39q-50 -59 -121 -94t-152 -37
l-26 -55q23 0 38.5 -15t15.5 -40q0 -30 -25.5 -51.5t-76.5 -21.5q-15 0 -29.5 2t-21.5 4l-7 1l3 28q30 -7 50 -7q31 0 48 14t17 33q0 36 -72 36z" />
    <glyph glyph-name="Egrave" unicode="&#xc8;" 
d="M148 52h439v-52h-496v705h475v-52h-418v-285h356v-52h-356v-264zM314 757l-169 153l66 6l148 -159h-45z" />
    <glyph glyph-name="Eacute" unicode="&#xc9;" 
d="M148 52h439v-52h-496v705h475v-52h-418v-285h356v-52h-356v-264zM528 910l-169 -153h-45l148 159z" />
    <glyph glyph-name="Ecircumflex" unicode="&#xca;" 
d="M148 52h439v-52h-496v705h475v-52h-418v-285h356v-52h-356v-264zM172 757l143 138h38l144 -138h-53l-110 100l-109 -100h-53z" />
    <glyph glyph-name="Edieresis" unicode="&#xcb;" 
d="M148 52h439v-52h-496v705h475v-52h-418v-285h356v-52h-356v-264zM415 845q15 0 25 -10.5t10 -25.5q0 -14 -10 -24.5t-25 -10.5t-25 10.5t-10 24.5q0 15 10 25.5t25 10.5zM253 845q15 0 25.5 -10.5t10.5 -25.5q0 -14 -10.5 -24.5t-25.5 -10.5q-14 0 -24.5 10.5t-10.5 24.5
q0 15 10.5 25.5t24.5 10.5z" />
    <glyph glyph-name="Igrave" unicode="&#xcc;" horiz-adv-x="242" 
d="M151 705v-705h-59v705h59zM100 770l-169 153l66 6l148 -159h-45z" />
    <glyph glyph-name="Iacute" unicode="&#xcd;" horiz-adv-x="242" 
d="M151 705v-705h-59v705h59zM317 923l-169 -153h-45l148 159z" />
    <glyph glyph-name="Icircumflex" unicode="&#xce;" horiz-adv-x="242" 
d="M151 705v-705h-59v705h59zM-40 770l143 138h38l144 -138h-53l-110 100l-109 -100h-53z" />
    <glyph glyph-name="Idieresis" unicode="&#xcf;" horiz-adv-x="242" 
d="M151 705v-705h-59v705h59zM204 858q15 0 25 -10.5t10 -25.5q0 -14 -10 -24.5t-25 -10.5t-25 10.5t-10 24.5q0 15 10 25.5t25 10.5zM42 858q15 0 25.5 -10.5t10.5 -25.5q0 -14 -10.5 -24.5t-25.5 -10.5q-14 0 -24.5 10.5t-10.5 24.5q0 15 10.5 25.5t24.5 10.5z" />
    <glyph glyph-name="Eth" unicode="&#xd0;" horiz-adv-x="747" 
d="M4 328v49h103v328h229q147 0 251 -103.5t104 -249.5q0 -142 -97.5 -247t-234.5 -105h-252v328h-103zM164 54h190q114 0 196.5 89.5t82.5 208.5q0 124 -87 211.5t-210 87.5h-172v-274h196v-49h-196v-274z" />
    <glyph glyph-name="Ntilde" unicode="&#xd1;" horiz-adv-x="771" 
d="M622 705h58v-705h-34l-497 594v-594h-58v705h33l498 -595v595zM231 757l-35 4q7 57 35 87t74 30q31 0 85.5 -23.5t78.5 -23.5t43.5 19.5t25.5 55.5l35 -5q-7 -55 -35 -85t-65 -30q-32 0 -87 23.5t-77 23.5q-61 0 -78 -76z" />
    <glyph glyph-name="Ograve" unicode="&#xd2;" horiz-adv-x="854" 
d="M427 709q154 0 262.5 -104.5t108.5 -252.5t-108.5 -252t-262.5 -104t-263 104t-109 252t109 252.5t263 104.5zM427 51q129 0 220.5 88.5t91.5 212.5t-91.5 212.5t-220.5 88.5t-220.5 -88.5t-91.5 -212.5t91.5 -212.5t220.5 -88.5zM399 757l-169 153l66 6l148 -159h-45z
" />
    <glyph glyph-name="Oacute" unicode="&#xd3;" horiz-adv-x="854" 
d="M427 709q154 0 262.5 -104.5t108.5 -252.5t-108.5 -252t-262.5 -104t-263 104t-109 252t109 252.5t263 104.5zM427 51q129 0 220.5 88.5t91.5 212.5t-91.5 212.5t-220.5 88.5t-220.5 -88.5t-91.5 -212.5t91.5 -212.5t220.5 -88.5zM612 910l-169 -153h-45l148 159z" />
    <glyph glyph-name="Ocircumflex" unicode="&#xd4;" horiz-adv-x="854" 
d="M427 709q154 0 262.5 -104.5t108.5 -252.5t-108.5 -252t-262.5 -104t-263 104t-109 252t109 252.5t263 104.5zM427 51q129 0 220.5 88.5t91.5 212.5t-91.5 212.5t-220.5 88.5t-220.5 -88.5t-91.5 -212.5t91.5 -212.5t220.5 -88.5zM258 757l143 138h38l144 -138h-53
l-110 100l-109 -100h-53z" />
    <glyph glyph-name="Otilde" unicode="&#xd5;" horiz-adv-x="854" 
d="M427 709q154 0 262.5 -104.5t108.5 -252.5t-108.5 -252t-262.5 -104t-263 104t-109 252t109 252.5t263 104.5zM427 51q129 0 220.5 88.5t91.5 212.5t-91.5 212.5t-220.5 88.5t-220.5 -88.5t-91.5 -212.5t91.5 -212.5t220.5 -88.5zM270 757l-35 4q7 57 35 87t74 30
q31 0 85.5 -23.5t78.5 -23.5t43.5 19.5t25.5 55.5l35 -5q-7 -55 -35 -85t-65 -30q-32 0 -87 23.5t-77 23.5q-61 0 -78 -76z" />
    <glyph glyph-name="Odieresis" unicode="&#xd6;" horiz-adv-x="854" 
d="M427 709q154 0 262.5 -104.5t108.5 -252.5t-108.5 -252t-262.5 -104t-263 104t-109 252t109 252.5t263 104.5zM427 51q129 0 220.5 88.5t91.5 212.5t-91.5 212.5t-220.5 88.5t-220.5 -88.5t-91.5 -212.5t91.5 -212.5t220.5 -88.5zM505 845q15 0 25 -10.5t10 -25.5
q0 -14 -10 -24.5t-25 -10.5t-25 10.5t-10 24.5q0 15 10 25.5t25 10.5zM343 845q15 0 25.5 -10.5t10.5 -25.5q0 -14 -10.5 -24.5t-25.5 -10.5q-14 0 -24.5 10.5t-10.5 24.5q0 15 10.5 25.5t24.5 10.5z" />
    <glyph glyph-name="multiply" unicode="&#xd7;" horiz-adv-x="564" 
d="M326 316l198 -198l-33 -34l-199 197l-197 -197l-34 34l198 198l-198 198l33 34l198 -198l199 198l34 -34z" />
    <glyph glyph-name="Oslash" unicode="&#xd8;" horiz-adv-x="854" 
d="M100 0l77 89q-57 50 -89.5 118t-32.5 145q0 148 109 252.5t263 104.5q124 0 222 -72l59 68h54l-81 -94q117 -106 117 -259q0 -148 -108.5 -252t-262.5 -104q-123 0 -219 68l-55 -64h-53zM115 352q0 -128 100 -217l397 458q-81 60 -185 60q-129 0 -220.5 -88.5
t-91.5 -212.5zM427 51q129 0 220.5 88.5t91.5 212.5q0 127 -97 213l-396 -457q81 -57 181 -57z" />
    <glyph glyph-name="Ugrave" unicode="&#xd9;" horiz-adv-x="755" 
d="M666 705v-422q0 -125 -76.5 -206t-212.5 -81t-212 80.5t-76 206.5v422h57v-411q0 -110 60.5 -176.5t170.5 -66.5q111 0 171.5 67t60.5 176v411h57zM359 757l-169 153l66 6l148 -159h-45z" />
    <glyph glyph-name="Uacute" unicode="&#xda;" horiz-adv-x="755" 
d="M666 705v-422q0 -125 -76.5 -206t-212.5 -81t-212 80.5t-76 206.5v422h57v-411q0 -110 60.5 -176.5t170.5 -66.5q111 0 171.5 67t60.5 176v411h57zM573 910l-169 -153h-45l148 159z" />
    <glyph glyph-name="Ucircumflex" unicode="&#xdb;" horiz-adv-x="755" 
d="M666 705v-422q0 -125 -76.5 -206t-212.5 -81t-212 80.5t-76 206.5v422h57v-411q0 -110 60.5 -176.5t170.5 -66.5q111 0 171.5 67t60.5 176v411h57zM217 757l143 138h38l144 -138h-53l-110 100l-109 -100h-53z" />
    <glyph glyph-name="Udieresis" unicode="&#xdc;" horiz-adv-x="755" 
d="M666 705v-422q0 -125 -76.5 -206t-212.5 -81t-212 80.5t-76 206.5v422h57v-411q0 -110 60.5 -176.5t170.5 -66.5q111 0 171.5 67t60.5 176v411h57zM460 845q15 0 25 -10.5t10 -25.5q0 -14 -10 -24.5t-25 -10.5t-25 10.5t-10 24.5q0 15 10 25.5t25 10.5zM298 845
q15 0 25.5 -10.5t10.5 -25.5q0 -14 -10.5 -24.5t-25.5 -10.5q-14 0 -24.5 10.5t-10.5 24.5q0 15 10.5 25.5t24.5 10.5z" />
    <glyph glyph-name="Yacute" unicode="&#xdd;" horiz-adv-x="658" 
d="M569 705h68l-278 -462v-243h-59v243l-278 462h67l240 -401zM526 910l-169 -153h-45l148 159z" />
    <glyph glyph-name="Thorn" unicode="&#xde;" horiz-adv-x="657" 
d="M91 0v705h58v-109h215q127 0 189 -64t62 -166q0 -122 -73.5 -181.5t-199.5 -59.5h-193v-125h-58zM149 176h192q99 0 157 47t58 143q0 79 -47.5 129t-147.5 50h-212v-369z" />
    <glyph glyph-name="germandbls" unicode="&#xdf;" horiz-adv-x="641" 
d="M429 421q77 -16 120 -73.5t43 -123.5q0 -107 -69 -167.5t-173 -60.5q-64 0 -108 15l7 50q44 -14 95 -14q83 0 137.5 46.5t54.5 130.5q0 65 -49 116.5t-137 51.5h-25v47h19q51 0 87 36t36 94q0 66 -46 103t-121 37q-70 0 -115.5 -55t-45.5 -144v-679h-57v671
q0 117 62.5 187t155.5 70q99 0 160.5 -50.5t61.5 -141.5q0 -52 -26 -91t-67 -55z" />
    <glyph glyph-name="agrave" unicode="&#xe0;" horiz-adv-x="668" 
d="M530 539h56v-539h-56v60q-83 -64 -202 -64q-118 0 -198.5 81.5t-80.5 195.5t80.5 195.5t198.5 81.5q120 0 202 -67v56zM530 118v307q-75 72 -195 72q-97 0 -163.5 -65.5t-66.5 -158.5t67 -159t163 -66q122 0 195 70zM315 616l-169 153l66 6l148 -159h-45z" />
    <glyph glyph-name="aacute" unicode="&#xe1;" horiz-adv-x="668" 
d="M530 539h56v-539h-56v60q-83 -64 -202 -64q-118 0 -198.5 81.5t-80.5 195.5t80.5 195.5t198.5 81.5q120 0 202 -67v56zM530 118v307q-75 72 -195 72q-97 0 -163.5 -65.5t-66.5 -158.5t67 -159t163 -66q122 0 195 70zM529 769l-169 -153h-45l148 159z" />
    <glyph glyph-name="acircumflex" unicode="&#xe2;" horiz-adv-x="668" 
d="M530 539h56v-539h-56v60q-83 -64 -202 -64q-118 0 -198.5 81.5t-80.5 195.5t80.5 195.5t198.5 81.5q120 0 202 -67v56zM530 118v307q-75 72 -195 72q-97 0 -163.5 -65.5t-66.5 -158.5t67 -159t163 -66q122 0 195 70zM180 616l143 138h38l144 -138h-53l-110 100l-109 -100
h-53z" />
    <glyph glyph-name="atilde" unicode="&#xe3;" horiz-adv-x="668" 
d="M530 539h56v-539h-56v60q-83 -64 -202 -64q-118 0 -198.5 81.5t-80.5 195.5t80.5 195.5t198.5 81.5q120 0 202 -67v56zM530 118v307q-75 72 -195 72q-97 0 -163.5 -65.5t-66.5 -158.5t67 -159t163 -66q122 0 195 70zM190 616l-35 4q7 57 35 87t74 30q31 0 85.5 -23.5
t78.5 -23.5t43.5 19.5t25.5 55.5l35 -5q-7 -55 -35 -85t-65 -30q-32 0 -87 23.5t-77 23.5q-61 0 -78 -76z" />
    <glyph glyph-name="adieresis" unicode="&#xe4;" horiz-adv-x="668" 
d="M530 539h56v-539h-56v60q-83 -64 -202 -64q-118 0 -198.5 81.5t-80.5 195.5t80.5 195.5t198.5 81.5q120 0 202 -67v56zM530 118v307q-75 72 -195 72q-97 0 -163.5 -65.5t-66.5 -158.5t67 -159t163 -66q122 0 195 70zM424 704q15 0 25 -10.5t10 -25.5q0 -14 -10 -24.5
t-25 -10.5t-25 10.5t-10 24.5q0 15 10 25.5t25 10.5zM262 704q15 0 25.5 -10.5t10.5 -25.5q0 -14 -10.5 -24.5t-25.5 -10.5q-14 0 -24.5 10.5t-10.5 24.5q0 15 10.5 25.5t24.5 10.5z" />
    <glyph glyph-name="aring" unicode="&#xe5;" horiz-adv-x="668" 
d="M530 539h56v-539h-56v60q-83 -64 -202 -64q-118 0 -198.5 81.5t-80.5 195.5t80.5 195.5t198.5 81.5q120 0 202 -67v56zM530 118v307q-75 72 -195 72q-97 0 -163.5 -65.5t-66.5 -158.5t67 -159t163 -66q122 0 195 70zM251 721q0 36 27 62.5t63 26.5t63 -26.5t27 -62.5
t-27 -62.5t-63 -26.5t-63 26.5t-27 62.5zM341 665q23 0 40 16.5t17 39.5t-17 40t-40 17t-40 -17t-17 -40t17 -39.5t40 -16.5z" />
    <glyph glyph-name="ae" unicode="&#xe6;" horiz-adv-x="1129" 
d="M587 0h-56v60q-83 -64 -202 -64q-116 0 -198 80t-82 197t82 196.5t198 79.5q123 0 202 -66v56h56v-127q32 63 93 100.5t138 37.5q121 -1 191 -79.5t70 -202.5v-16h-479q5 -90 67 -149t156 -59q125 0 197 86l37 -30q-83 -104 -235 -104q-80 0 -142 37t-93 101v-134z
M531 118v307q-75 72 -195 72q-96 0 -163.5 -65t-67.5 -159q0 -95 67.5 -160t163.5 -65q122 0 195 70zM818 502q-91 0 -151 -58.5t-67 -147.5h424q-7 93 -62 149.5t-144 56.5z" />
    <glyph glyph-name="ccedilla" unicode="&#xe7;" horiz-adv-x="587" 
d="M269 -75l47 72q-113 9 -190.5 88t-77.5 187q0 115 86 196t208 81q119 0 199 -93l-39 -35q-63 76 -160 76q-98 0 -168 -65.5t-70 -159.5q0 -93 70 -158.5t168 -65.5q96 0 160 79l37 -36q-73 -89 -184 -94l-26 -55q23 0 38.5 -15t15.5 -40q0 -30 -25.5 -51.5t-76.5 -21.5
q-15 0 -29.5 2t-21.5 4l-7 1l3 28q30 -7 50 -7q31 0 48 14t17 33q0 36 -72 36z" />
    <glyph glyph-name="egrave" unicode="&#xe8;" horiz-adv-x="633" 
d="M583 268v-16h-478q10 -89 74.5 -146.5t151.5 -57.5q58 0 108.5 22t82.5 63l39 -32q-38 -49 -100.5 -77t-137.5 -28q-120 0 -197.5 80t-77.5 196q0 117 77.5 197t197.5 80q119 0 189.5 -78t70.5 -203zM323 501q-90 0 -150 -58t-68 -145h422q-5 91 -59 147t-145 56z
M298 616l-169 153l66 6l148 -159h-45z" />
    <glyph glyph-name="eacute" unicode="&#xe9;" horiz-adv-x="633" 
d="M583 268v-16h-478q10 -89 74.5 -146.5t151.5 -57.5q58 0 108.5 22t82.5 63l39 -32q-38 -49 -100.5 -77t-137.5 -28q-120 0 -197.5 80t-77.5 196q0 117 77.5 197t197.5 80q119 0 189.5 -78t70.5 -203zM323 501q-90 0 -150 -58t-68 -145h422q-5 91 -59 147t-145 56z
M512 769l-169 -153h-45l148 159z" />
    <glyph glyph-name="ecircumflex" unicode="&#xea;" horiz-adv-x="633" 
d="M583 268v-16h-478q10 -89 74.5 -146.5t151.5 -57.5q58 0 108.5 22t82.5 63l39 -32q-38 -49 -100.5 -77t-137.5 -28q-120 0 -197.5 80t-77.5 196q0 117 77.5 197t197.5 80q119 0 189.5 -78t70.5 -203zM323 501q-90 0 -150 -58t-68 -145h422q-5 91 -59 147t-145 56z
M156 616l143 138h38l144 -138h-53l-110 100l-109 -100h-53z" />
    <glyph glyph-name="edieresis" unicode="&#xeb;" horiz-adv-x="633" 
d="M583 268v-16h-478q10 -89 74.5 -146.5t151.5 -57.5q58 0 108.5 22t82.5 63l39 -32q-38 -49 -100.5 -77t-137.5 -28q-120 0 -197.5 80t-77.5 196q0 117 77.5 197t197.5 80q119 0 189.5 -78t70.5 -203zM323 501q-90 0 -150 -58t-68 -145h422q-5 91 -59 147t-145 56z
M399 704q15 0 25 -10.5t10 -25.5q0 -14 -10 -24.5t-25 -10.5t-25 10.5t-10 24.5q0 15 10 25.5t25 10.5zM237 704q15 0 25.5 -10.5t10.5 -25.5q0 -14 -10.5 -24.5t-25.5 -10.5q-14 0 -24.5 10.5t-10.5 24.5q0 15 10.5 25.5t24.5 10.5z" />
    <glyph glyph-name="igrave" unicode="&#xec;" horiz-adv-x="225" 
d="M93 606l-169 153l66 6l148 -159h-45zM84 0v539h57v-539h-57z" />
    <glyph glyph-name="iacute" unicode="&#xed;" horiz-adv-x="225" 
d="M308 759l-169 -153h-45l148 159zM84 0v539h57v-539h-57z" />
    <glyph glyph-name="icircumflex" unicode="&#xee;" horiz-adv-x="225" 
d="M84 0v539h57v-539h-57zM-49 606l143 138h38l144 -138h-53l-110 100l-109 -100h-53z" />
    <glyph glyph-name="idieresis" unicode="&#xef;" horiz-adv-x="225" 
d="M194 694q15 0 25 -10.5t10 -25.5q0 -14 -10 -24.5t-25 -10.5t-25 10.5t-10 24.5q0 15 10 25.5t25 10.5zM32 694q15 0 25.5 -10.5t10.5 -25.5q0 -14 -10.5 -24.5t-25.5 -10.5q-14 0 -24.5 10.5t-10.5 24.5q0 15 10.5 25.5t24.5 10.5zM84 0v539h57v-539h-57z" />
    <glyph glyph-name="eth" unicode="&#xf0;" horiz-adv-x="662" 
d="M217 754h67q71 -68 90 -88l143 50l23 -34l-137 -48q99 -103 158 -197.5t59 -184.5q0 -105 -87 -180.5t-206 -75.5q-121 0 -207.5 76.5t-86.5 182.5q0 102 81 175.5t201 73.5q114 0 185 -65q-60 88 -150 176l-170 -59l-24 34l166 58zM327 48q98 0 167.5 62t69.5 150
t-71.5 141t-165.5 53q-99 0 -168.5 -57t-69.5 -142t70 -146t168 -61z" />
    <glyph glyph-name="ntilde" unicode="&#xf1;" horiz-adv-x="640" 
d="M336 549q106 0 169 -61.5t63 -178.5v-309h-56v309q0 90 -51 139t-132 49q-114 0 -191 -69v-428h-56v539h56v-58q74 68 198 68zM169 606l-35 4q7 57 35 87t74 30q31 0 85.5 -23.5t78.5 -23.5t43.5 19.5t25.5 55.5l35 -5q-7 -55 -35 -85t-65 -30q-32 0 -87 23.5t-77 23.5
q-61 0 -78 -76z" />
    <glyph glyph-name="ograve" unicode="&#xf2;" horiz-adv-x="682" 
d="M341 549q121 0 207 -81t86 -196t-86 -195.5t-207 -80.5q-122 0 -208 80.5t-86 195.5t86 196t208 81zM341 48q98 0 167.5 65.5t69.5 158.5q0 94 -69.5 159.5t-167.5 65.5t-168 -65.5t-70 -159.5q0 -93 70 -158.5t168 -65.5zM315 606l-169 153l66 6l148 -159h-45z" />
    <glyph glyph-name="oacute" unicode="&#xf3;" horiz-adv-x="682" 
d="M341 549q121 0 207 -81t86 -196t-86 -195.5t-207 -80.5q-122 0 -208 80.5t-86 195.5t86 196t208 81zM341 48q98 0 167.5 65.5t69.5 158.5q0 94 -69.5 159.5t-167.5 65.5t-168 -65.5t-70 -159.5q0 -93 70 -158.5t168 -65.5zM529 759l-169 -153h-45l148 159z" />
    <glyph glyph-name="ocircumflex" unicode="&#xf4;" horiz-adv-x="682" 
d="M341 549q121 0 207 -81t86 -196t-86 -195.5t-207 -80.5q-122 0 -208 80.5t-86 195.5t86 196t208 81zM341 48q98 0 167.5 65.5t69.5 158.5q0 94 -69.5 159.5t-167.5 65.5t-168 -65.5t-70 -159.5q0 -93 70 -158.5t168 -65.5zM175 606l143 138h38l144 -138h-53l-110 100
l-109 -100h-53z" />
    <glyph glyph-name="otilde" unicode="&#xf5;" horiz-adv-x="682" 
d="M341 549q121 0 207 -81t86 -196t-86 -195.5t-207 -80.5q-122 0 -208 80.5t-86 195.5t86 196t208 81zM341 48q98 0 167.5 65.5t69.5 158.5q0 94 -69.5 159.5t-167.5 65.5t-168 -65.5t-70 -159.5q0 -93 70 -158.5t168 -65.5zM185 606l-35 4q7 57 35 87t74 30
q31 0 85.5 -23.5t78.5 -23.5t43.5 19.5t25.5 55.5l35 -5q-7 -55 -35 -85t-65 -30q-32 0 -87 23.5t-77 23.5q-61 0 -78 -76z" />
    <glyph glyph-name="odieresis" unicode="&#xf6;" horiz-adv-x="682" 
d="M341 549q121 0 207 -81t86 -196t-86 -195.5t-207 -80.5q-122 0 -208 80.5t-86 195.5t86 196t208 81zM341 48q98 0 167.5 65.5t69.5 158.5q0 94 -69.5 159.5t-167.5 65.5t-168 -65.5t-70 -159.5q0 -93 70 -158.5t168 -65.5zM418 694q15 0 25 -10.5t10 -25.5
q0 -14 -10 -24.5t-25 -10.5t-25 10.5t-10 24.5q0 15 10 25.5t25 10.5zM256 694q15 0 25.5 -10.5t10.5 -25.5q0 -14 -10.5 -24.5t-25.5 -10.5q-14 0 -24.5 10.5t-10.5 24.5q0 15 10.5 25.5t24.5 10.5z" />
    <glyph glyph-name="divide" unicode="&#xf7;" horiz-adv-x="526" 
d="M480 356v-48h-432v48h432zM259 527q-16 0 -27 10.5t-11 26.5t11 27t27 11t26.5 -11t10.5 -27t-10.5 -26.5t-26.5 -10.5zM259 41q-16 0 -27 11t-11 26q0 16 11 27t27 11t26.5 -11t10.5 -27q0 -15 -10.5 -26t-26.5 -11z" />
    <glyph glyph-name="oslash" unicode="&#xf8;" horiz-adv-x="683" 
d="M74 0l64 73q-91 80 -91 199q0 115 86 196t208 81q97 0 172 -53l44 50h49l-65 -73q93 -82 93 -201q0 -115 -86 -195.5t-207 -80.5q-97 0 -174 53l-45 -49h-48zM341 48q98 0 167.5 65.5t69.5 158.5q0 94 -75 158l-300 -339q58 -43 138 -43zM103 272q0 -93 72 -157l302 340
q-61 42 -136 42q-98 0 -168 -65.5t-70 -159.5z" />
    <glyph glyph-name="ugrave" unicode="&#xf9;" horiz-adv-x="648" 
d="M509 539h56v-539h-56v64q-76 -68 -206 -68q-106 0 -169 61.5t-63 178.5v303h56v-303q0 -89 51 -138.5t132 -49.5q119 0 199 69v422zM304 606l-169 153l66 6l148 -159h-45z" />
    <glyph glyph-name="uacute" unicode="&#xfa;" horiz-adv-x="648" 
d="M509 539h56v-539h-56v64q-76 -68 -206 -68q-106 0 -169 61.5t-63 178.5v303h56v-303q0 -89 51 -138.5t132 -49.5q119 0 199 69v422zM518 759l-169 -153h-45l148 159z" />
    <glyph glyph-name="ucircumflex" unicode="&#xfb;" horiz-adv-x="648" 
d="M509 539h56v-539h-56v64q-76 -68 -206 -68q-106 0 -169 61.5t-63 178.5v303h56v-303q0 -89 51 -138.5t132 -49.5q119 0 199 69v422zM155 606l143 138h38l144 -138h-53l-110 100l-109 -100h-53z" />
    <glyph glyph-name="udieresis" unicode="&#xfc;" horiz-adv-x="648" 
d="M509 539h56v-539h-56v64q-76 -68 -206 -68q-106 0 -169 61.5t-63 178.5v303h56v-303q0 -89 51 -138.5t132 -49.5q119 0 199 69v422zM397 694q15 0 25 -10.5t10 -25.5q0 -14 -10 -24.5t-25 -10.5t-25 10.5t-10 24.5q0 15 10 25.5t25 10.5zM235 694q15 0 25.5 -10.5
t10.5 -25.5q0 -14 -10.5 -24.5t-25.5 -10.5q-14 0 -24.5 10.5t-10.5 24.5q0 15 10.5 25.5t24.5 10.5z" />
    <glyph glyph-name="yacute" unicode="&#xfd;" horiz-adv-x="610" 
d="M516 539h60l-228 -568q-26 -65 -84.5 -103.5t-130.5 -48.5q-31 -4 -90 -4l5 47h12q189 0 240 138h-27l-242 539h61l214 -473h22zM506 759l-169 -153h-45l148 159z" />
    <glyph glyph-name="thorn" unicode="&#xfe;" horiz-adv-x="670" 
d="M340 549q116 0 198 -79.5t82 -196.5t-82 -197t-198 -80q-121 0 -202 62v-233h-56v929h56v-270q81 65 202 65zM333 48q96 0 163.5 65t67.5 160q0 94 -67.5 159t-163.5 65q-120 0 -195 -72v-307q73 -70 195 -70z" />
    <glyph glyph-name="ydieresis" unicode="&#xff;" horiz-adv-x="610" 
d="M516 539h60l-228 -568q-26 -65 -84.5 -103.5t-130.5 -48.5q-31 -4 -90 -4l5 47h12q189 0 240 138h-27l-242 539h61l214 -473h22zM393 694q15 0 25 -10.5t10 -25.5q0 -14 -10 -24.5t-25 -10.5t-25 10.5t-10 24.5q0 15 10 25.5t25 10.5zM231 694q15 0 25.5 -10.5
t10.5 -25.5q0 -14 -10.5 -24.5t-25.5 -10.5q-14 0 -24.5 10.5t-10.5 24.5q0 15 10.5 25.5t24.5 10.5z" />
    <glyph glyph-name="Amacron" unicode="&#x100;" horiz-adv-x="723" 
d="M639 0l-85 192h-386l-84 -192h-62l321 705h37l321 -705h-62zM361 627l-171 -386h343zM203 788v42h316v-42h-316z" />
    <glyph glyph-name="amacron" unicode="&#x101;" horiz-adv-x="668" 
d="M530 539h56v-539h-56v60q-83 -64 -202 -64q-118 0 -198.5 81.5t-80.5 195.5t80.5 195.5t198.5 81.5q120 0 202 -67v56zM530 118v307q-75 72 -195 72q-97 0 -163.5 -65.5t-66.5 -158.5t67 -159t163 -66q122 0 195 70zM176 647v42h316v-42h-316z" />
    <glyph glyph-name="Abreve" unicode="&#x102;" horiz-adv-x="723" 
d="M639 0l-85 192h-386l-84 -192h-62l321 705h37l321 -705h-62zM361 627l-171 -386h343zM362 775q-65 0 -104 33t-44 98l41 4q9 -92 107 -92q97 0 107 92l41 -4q-5 -65 -44.5 -98t-103.5 -33z" />
    <glyph glyph-name="abreve" unicode="&#x103;" horiz-adv-x="668" 
d="M530 539h56v-539h-56v60q-83 -64 -202 -64q-118 0 -198.5 81.5t-80.5 195.5t80.5 195.5t198.5 81.5q120 0 202 -67v56zM530 118v307q-75 72 -195 72q-97 0 -163.5 -65.5t-66.5 -158.5t67 -159t163 -66q122 0 195 70zM336 634q-65 0 -104 33t-44 98l41 4q9 -92 107 -92
q97 0 107 92l41 -4q-5 -65 -44.5 -98t-103.5 -33z" />
    <glyph glyph-name="Aogonek" unicode="&#x104;" horiz-adv-x="723" 
d="M639 0l-85 192h-386l-84 -192h-62l321 705h37l321 -705l-7 -6q-6 -7 -14.5 -16.5t-17 -21t-14.5 -25t-6 -24.5q0 -17 11.5 -28t31.5 -12q18 0 43 4l4 -36q-31 -6 -55 -6q-40 0 -61 18t-21 50q0 47 60 103h-16zM361 627l-171 -386h343z" />
    <glyph glyph-name="aogonek" unicode="&#x105;" horiz-adv-x="668" 
d="M613 -129l4 -36q-31 -6 -55 -6q-40 0 -61 18t-21 50q0 47 60 103h-10v60q-83 -64 -202 -64q-118 0 -198.5 81.5t-80.5 195.5t80.5 195.5t198.5 81.5q120 0 202 -67v56h56v-539l-6 -6q-7 -7 -15.5 -16.5t-17 -21t-14.5 -25t-6 -24.5q0 -17 11.5 -28t31.5 -12q18 0 43 4z
M530 118v307q-75 72 -195 72q-97 0 -163.5 -65.5t-66.5 -158.5t67 -159t163 -66q122 0 195 70z" />
    <glyph glyph-name="Cacute" unicode="&#x106;" horiz-adv-x="763" 
d="M425 52q73 0 136 30.5t107 84.5l45 -39q-52 -62 -127 -97t-161 -35q-153 0 -261 104t-108 252t108 252.5t261 104.5q85 0 160.5 -35.5t127.5 -97.5l-45 -39q-44 54 -107 85t-136 31q-128 0 -218.5 -87.5t-90.5 -213.5q0 -125 90.5 -212.5t218.5 -87.5zM607 910l-169 -153
h-45l148 159z" />
    <glyph glyph-name="cacute" unicode="&#x107;" horiz-adv-x="587" 
d="M502 127l37 -36q-36 -45 -88 -70t-109 -25q-122 0 -208 80.5t-86 195.5t86 196t208 81q119 0 199 -93l-39 -35q-63 76 -160 76q-98 0 -168 -65.5t-70 -159.5q0 -93 70 -158.5t168 -65.5q96 0 160 79zM522 769l-169 -153h-45l148 159z" />
    <glyph glyph-name="Ccircumflex" unicode="&#x108;" horiz-adv-x="763" 
d="M425 52q73 0 136 30.5t107 84.5l45 -39q-52 -62 -127 -97t-161 -35q-153 0 -261 104t-108 252t108 252.5t261 104.5q85 0 160.5 -35.5t127.5 -97.5l-45 -39q-44 54 -107 85t-136 31q-128 0 -218.5 -87.5t-90.5 -213.5q0 -125 90.5 -212.5t218.5 -87.5zM251 757l143 138
h38l144 -138h-53l-110 100l-109 -100h-53z" />
    <glyph glyph-name="ccircumflex" unicode="&#x109;" horiz-adv-x="587" 
d="M502 127l37 -36q-36 -45 -88 -70t-109 -25q-122 0 -208 80.5t-86 195.5t86 196t208 81q119 0 199 -93l-39 -35q-63 76 -160 76q-98 0 -168 -65.5t-70 -159.5q0 -93 70 -158.5t168 -65.5q96 0 160 79zM165 616l143 138h38l144 -138h-53l-110 100l-109 -100h-53z" />
    <glyph glyph-name="Cdotaccent" unicode="&#x10a;" horiz-adv-x="763" 
d="M425 52q73 0 136 30.5t107 84.5l45 -39q-52 -62 -127 -97t-161 -35q-153 0 -261 104t-108 252t108 252.5t261 104.5q85 0 160.5 -35.5t127.5 -97.5l-45 -39q-44 54 -107 85t-136 31q-128 0 -218.5 -87.5t-90.5 -213.5q0 -125 90.5 -212.5t218.5 -87.5zM421 845
q15 0 25 -10.5t10 -25.5q0 -14 -10 -24.5t-25 -10.5t-25 10.5t-10 24.5q0 15 10 25.5t25 10.5z" />
    <glyph glyph-name="cdotaccent" unicode="&#x10b;" horiz-adv-x="587" 
d="M502 127l37 -36q-36 -45 -88 -70t-109 -25q-122 0 -208 80.5t-86 195.5t86 196t208 81q119 0 199 -93l-39 -35q-63 76 -160 76q-98 0 -168 -65.5t-70 -159.5q0 -93 70 -158.5t168 -65.5q96 0 160 79zM336 704q15 0 25 -10.5t10 -25.5q0 -14 -10 -24.5t-25 -10.5t-25 10.5
t-10 24.5q0 15 10 25.5t25 10.5z" />
    <glyph glyph-name="Ccaron" unicode="&#x10c;" horiz-adv-x="763" 
d="M425 52q73 0 136 30.5t107 84.5l45 -39q-52 -62 -127 -97t-161 -35q-153 0 -261 104t-108 252t108 252.5t261 104.5q85 0 160.5 -35.5t127.5 -97.5l-45 -39q-44 54 -107 85t-136 31q-128 0 -218.5 -87.5t-90.5 -213.5q0 -125 90.5 -212.5t218.5 -87.5zM402 757l-143 138
h53l109 -101l110 101h53l-144 -138h-38z" />
    <glyph glyph-name="ccaron" unicode="&#x10d;" horiz-adv-x="587" 
d="M502 127l37 -36q-36 -45 -88 -70t-109 -25q-122 0 -208 80.5t-86 195.5t86 196t208 81q119 0 199 -93l-39 -35q-63 76 -160 76q-98 0 -168 -65.5t-70 -159.5q0 -93 70 -158.5t168 -65.5q96 0 160 79zM307 616l-143 138h53l109 -101l110 101h53l-144 -138h-38z" />
    <glyph glyph-name="Dcaron" unicode="&#x10e;" horiz-adv-x="731" 
d="M675 352q0 -140 -96.5 -241.5t-235.5 -110.5h-252v705h229q147 0 251 -103.5t104 -249.5zM148 54h190q116 9 197.5 95t81.5 203q0 124 -87 211.5t-210 87.5h-172v-597zM305 757l-143 138h53l109 -101l110 101h53l-144 -138h-38z" />
    <glyph glyph-name="dcaron" unicode="&#x10f;" horiz-adv-x="745" 
d="M530 754h57v-754h-57v60q-80 -65 -201 -65q-116 0 -198 80.5t-82 196.5q0 118 82 197.5t198 79.5q119 0 201 -63v268zM336 48q120 0 194 72v307q-75 70 -194 70q-96 0 -163.5 -65.5t-67.5 -159.5t67.5 -159t163.5 -65zM703 705q40 0 40 -59q0 -48 -29.5 -82.5
t-85.5 -34.5l-9 26q80 2 81 74q-14 2 -23.5 12.5t-9.5 25.5q0 16 11 27t25 11z" />
    <glyph glyph-name="Dcroat" unicode="&#x110;" horiz-adv-x="747" 
d="M4 328v49h103v328h229q147 0 251 -103.5t104 -249.5q0 -142 -97.5 -247t-234.5 -105h-252v328h-103zM164 54h190q114 0 196.5 89.5t82.5 208.5q0 124 -87 211.5t-210 87.5h-172v-274h196v-49h-196v-274zM165 788v42h316v-42h-316z" />
    <glyph glyph-name="dcroat" unicode="&#x111;" horiz-adv-x="669" 
d="M715 656v-49h-128v-607h-57v60q-80 -65 -201 -65q-116 0 -198 80.5t-82 196.5q0 118 82 197.5t198 79.5q119 0 201 -63v121h-127v49h127v98h57v-98h128zM336 48q120 0 194 72v307q-75 70 -194 70q-96 0 -163.5 -65.5t-67.5 -159.5t67.5 -159t163.5 -65z" />
    <glyph glyph-name="Emacron" unicode="&#x112;" 
d="M148 52h439v-52h-496v705h475v-52h-418v-285h356v-52h-356v-264zM175 788v42h316v-42h-316z" />
    <glyph glyph-name="emacron" unicode="&#x113;" horiz-adv-x="633" 
d="M583 268v-16h-478q10 -89 74.5 -146.5t151.5 -57.5q58 0 108.5 22t82.5 63l39 -32q-38 -49 -100.5 -77t-137.5 -28q-120 0 -197.5 80t-77.5 196q0 117 77.5 197t197.5 80q119 0 189.5 -78t70.5 -203zM323 501q-90 0 -150 -58t-68 -145h422q-5 91 -59 147t-145 56z
M167 647v42h316v-42h-316z" />
    <glyph glyph-name="Ebreve" unicode="&#x114;" 
d="M148 52h439v-52h-496v705h475v-52h-418v-285h356v-52h-356v-264zM335 775q-65 0 -104 33t-44 98l41 4q9 -92 107 -92q97 0 107 92l41 -4q-5 -65 -44.5 -98t-103.5 -33z" />
    <glyph glyph-name="ebreve" unicode="&#x115;" horiz-adv-x="633" 
d="M583 268v-16h-478q10 -89 74.5 -146.5t151.5 -57.5q58 0 108.5 22t82.5 63l39 -32q-38 -49 -100.5 -77t-137.5 -28q-120 0 -197.5 80t-77.5 196q0 117 77.5 197t197.5 80q119 0 189.5 -78t70.5 -203zM323 501q-90 0 -150 -58t-68 -145h422q-5 91 -59 147t-145 56z
M319 634q-65 0 -104 33t-44 98l41 4q9 -92 107 -92q97 0 107 92l41 -4q-5 -65 -44.5 -98t-103.5 -33z" />
    <glyph glyph-name="Edotaccent" unicode="&#x116;" 
d="M148 52h439v-52h-496v705h475v-52h-418v-285h356v-52h-356v-264zM334 845q15 0 25 -10.5t10 -25.5q0 -14 -10 -24.5t-25 -10.5t-25 10.5t-10 24.5q0 15 10 25.5t25 10.5z" />
    <glyph glyph-name="edotaccent" unicode="&#x117;" horiz-adv-x="633" 
d="M583 268v-16h-478q10 -89 74.5 -146.5t151.5 -57.5q58 0 108.5 22t82.5 63l39 -32q-38 -49 -100.5 -77t-137.5 -28q-120 0 -197.5 80t-77.5 196q0 117 77.5 197t197.5 80q119 0 189.5 -78t70.5 -203zM323 501q-90 0 -150 -58t-68 -145h422q-5 91 -59 147t-145 56z
M318 704q15 0 25 -10.5t10 -25.5q0 -14 -10 -24.5t-25 -10.5t-25 10.5t-10 24.5q0 15 10 25.5t25 10.5z" />
    <glyph glyph-name="Eogonek" unicode="&#x118;" 
d="M614 -129l4 -36q-31 -6 -55 -6q-40 0 -61 18t-21 50q0 47 60 103h-450v705h475v-52h-418v-285h356v-52h-356v-264h439v-52l-7 -6q-6 -7 -14.5 -16.5t-17 -21t-14.5 -25t-6 -24.5q0 -17 11.5 -28t31.5 -12q18 0 43 4z" />
    <glyph glyph-name="eogonek" unicode="&#x119;" horiz-adv-x="633" 
d="M421 -126l4 -36q-31 -6 -55 -6q-40 0 -61 18t-21 50q0 44 53 97q-6 -1 -18 -1q-120 0 -197.5 80t-77.5 196q0 117 77.5 197t197.5 80q119 0 189.5 -78t70.5 -203v-16h-478q10 -89 74.5 -146.5t151.5 -57.5q58 0 108.5 22t82.5 63l39 -32q-59 -76 -167 -98l-6 -7
q-7 -6 -15.5 -15.5t-17 -21t-14.5 -25t-6 -24.5q0 -17 11.5 -28t31.5 -12q18 0 43 4zM323 501q-90 0 -150 -58t-68 -145h422q-5 91 -59 147t-145 56z" />
    <glyph glyph-name="Ecaron" unicode="&#x11a;" 
d="M148 52h439v-52h-496v705h475v-52h-418v-285h356v-52h-356v-264zM315 757l-143 138h53l109 -101l110 101h53l-144 -138h-38z" />
    <glyph glyph-name="ecaron" unicode="&#x11b;" horiz-adv-x="633" 
d="M583 268v-16h-478q10 -89 74.5 -146.5t151.5 -57.5q58 0 108.5 22t82.5 63l39 -32q-38 -49 -100.5 -77t-137.5 -28q-120 0 -197.5 80t-77.5 196q0 117 77.5 197t197.5 80q119 0 189.5 -78t70.5 -203zM323 501q-90 0 -150 -58t-68 -145h422q-5 91 -59 147t-145 56z
M299 616l-143 138h53l109 -101l110 101h53l-144 -138h-38z" />
    <glyph glyph-name="Gcircumflex" unicode="&#x11c;" horiz-adv-x="797" 
d="M410 332h322v-234q-128 -102 -305 -102q-154 0 -262.5 104t-108.5 252t108.5 252t262.5 104q171 0 279 -100l-38 -42q-93 87 -241 87q-129 0 -220.5 -88.5t-91.5 -212.5q0 -126 91.5 -214.5t220.5 -88.5q140 0 247 79v153h-264v51zM252 757l143 138h38l144 -138h-53
l-110 100l-109 -100h-53z" />
    <glyph glyph-name="gcircumflex" unicode="&#x11d;" horiz-adv-x="668" 
d="M530 539h56v-478q0 -106 -66.5 -176t-194.5 -70q-23 0 -42 0.5t-33 1t-29.5 3t-23 3.5t-23.5 5t-21 5.5t-24.5 7t-26.5 7.5l12 45q62 -18 99 -24.5t103 -6.5q102 0 155.5 50.5t56.5 124.5v21q-81 -62 -200 -62q-116 0 -198 82t-82 198q0 115 82 194t198 79q121 0 202 -65
v55zM104 276q0 -94 67.5 -160.5t163.5 -66.5q123 0 195 69v308q-74 71 -195 71q-96 0 -163.5 -64.5t-67.5 -156.5zM174 616l143 138h38l144 -138h-53l-110 100l-109 -100h-53z" />
    <glyph glyph-name="Gbreve" unicode="&#x11e;" horiz-adv-x="797" 
d="M410 332h322v-234q-128 -102 -305 -102q-154 0 -262.5 104t-108.5 252t108.5 252t262.5 104q171 0 279 -100l-38 -42q-93 87 -241 87q-129 0 -220.5 -88.5t-91.5 -212.5q0 -126 91.5 -214.5t220.5 -88.5q140 0 247 79v153h-264v51zM415 775q-65 0 -104 33t-44 98l41 4
q9 -92 107 -92q97 0 107 92l41 -4q-5 -65 -44.5 -98t-103.5 -33z" />
    <glyph glyph-name="gbreve" unicode="&#x11f;" horiz-adv-x="668" 
d="M530 539h56v-478q0 -106 -66.5 -176t-194.5 -70q-23 0 -42 0.5t-33 1t-29.5 3t-23 3.5t-23.5 5t-21 5.5t-24.5 7t-26.5 7.5l12 45q62 -18 99 -24.5t103 -6.5q102 0 155.5 50.5t56.5 124.5v21q-81 -62 -200 -62q-116 0 -198 82t-82 198q0 115 82 194t198 79q121 0 202 -65
v55zM104 276q0 -94 67.5 -160.5t163.5 -66.5q123 0 195 69v308q-74 71 -195 71q-96 0 -163.5 -64.5t-67.5 -156.5zM337 634q-65 0 -104 33t-44 98l41 4q9 -92 107 -92q97 0 107 92l41 -4q-5 -65 -44.5 -98t-103.5 -33z" />
    <glyph glyph-name="Gdotaccent" unicode="&#x120;" horiz-adv-x="797" 
d="M410 332h322v-234q-128 -102 -305 -102q-154 0 -262.5 104t-108.5 252t108.5 252t262.5 104q171 0 279 -100l-38 -42q-93 87 -241 87q-129 0 -220.5 -88.5t-91.5 -212.5q0 -126 91.5 -214.5t220.5 -88.5q140 0 247 79v153h-264v51zM414 845q15 0 25 -10.5t10 -25.5
q0 -14 -10 -24.5t-25 -10.5t-25 10.5t-10 24.5q0 15 10 25.5t25 10.5z" />
    <glyph glyph-name="gdotaccent" unicode="&#x121;" horiz-adv-x="668" 
d="M530 539h56v-478q0 -106 -66.5 -176t-194.5 -70q-23 0 -42 0.5t-33 1t-29.5 3t-23 3.5t-23.5 5t-21 5.5t-24.5 7t-26.5 7.5l12 45q62 -18 99 -24.5t103 -6.5q102 0 155.5 50.5t56.5 124.5v21q-81 -62 -200 -62q-116 0 -198 82t-82 198q0 115 82 194t198 79q121 0 202 -65
v55zM104 276q0 -94 67.5 -160.5t163.5 -66.5q123 0 195 69v308q-74 71 -195 71q-96 0 -163.5 -64.5t-67.5 -156.5zM336 704q15 0 25 -10.5t10 -25.5q0 -14 -10 -24.5t-25 -10.5t-25 10.5t-10 24.5q0 15 10 25.5t25 10.5z" />
    <glyph glyph-name="Gcommaaccent" unicode="&#x122;" horiz-adv-x="797" 
d="M410 332h322v-234q-128 -102 -305 -102q-154 0 -262.5 104t-108.5 252t108.5 252t262.5 104q171 0 279 -100l-38 -42q-93 87 -241 87q-129 0 -220.5 -88.5t-91.5 -212.5q0 -126 91.5 -214.5t220.5 -88.5q140 0 247 79v153h-264v51zM424 -68q40 0 40 -59
q0 -48 -29.5 -82.5t-84.5 -34.5l-9 26q80 4 81 75q-14 1 -24 11.5t-10 25.5q0 16 11 27t25 11z" />
    <glyph glyph-name="gcommaaccent" unicode="&#x123;" horiz-adv-x="668" 
d="M530 539h56v-478q0 -106 -66.5 -176t-194.5 -70q-23 0 -42 0.5t-33 1t-29.5 3t-23 3.5t-23.5 5t-21 5.5t-24.5 7t-26.5 7.5l12 45q62 -18 99 -24.5t103 -6.5q102 0 155.5 50.5t56.5 124.5v21q-81 -62 -200 -62q-116 0 -198 82t-82 198q0 115 82 194t198 79q121 0 202 -65
v55zM104 276q0 -94 67.5 -160.5t163.5 -66.5q123 0 195 69v308q-74 71 -195 71q-96 0 -163.5 -64.5t-67.5 -156.5zM340 643q-40 0 -40 59q0 48 29.5 82.5t84.5 34.5l9 -26q-80 -4 -81 -75q14 -1 24 -11.5t10 -25.5q0 -16 -11 -27t-25 -11z" />
    <glyph glyph-name="Hcircumflex" unicode="&#x124;" horiz-adv-x="731" 
d="M583 705h57v-705h-57v284h-435v-284h-57v705h57v-369h435v369zM219 757l143 138h38l144 -138h-53l-110 100l-109 -100h-53z" />
    <glyph glyph-name="hcircumflex" unicode="&#x125;" 
d="M336 549q106 0 169 -61.5t63 -178.5v-309h-56v309q0 89 -51 138.5t-132 49.5q-114 0 -191 -68v-429h-56v754h56v-271q74 66 198 66zM148 757l143 138h38l144 -138h-53l-110 100l-109 -100h-53z" />
    <glyph glyph-name="Hbar" unicode="&#x126;" horiz-adv-x="731" 
d="M46 572v44h45v89h57v-89h435v89h57v-89h45v-44h-45v-572h-57v284h-435v-284h-57v572h-45zM148 336h435v236h-435v-236z" />
    <glyph glyph-name="hbar" unicode="&#x127;" 
d="M-24 572v44h106v138h56v-138h106v-44h-106v-89q74 66 198 66q106 0 169 -61.5t63 -178.5v-309h-56v309q0 89 -51 138.5t-132 49.5q-114 0 -191 -68v-429h-56v572h-106z" />
    <glyph glyph-name="Itilde" unicode="&#x128;" horiz-adv-x="242" 
d="M151 705v-705h-59v705h59zM-31 770l-35 4q7 57 35 87t74 30q31 0 85.5 -23.5t78.5 -23.5t43.5 19.5t25.5 55.5l35 -5q-7 -55 -35 -85t-65 -30q-32 0 -87 23.5t-77 23.5q-61 0 -78 -76z" />
    <glyph glyph-name="itilde" unicode="&#x129;" horiz-adv-x="225" 
d="M-40 606l-35 4q7 57 35 87t74 30q31 0 85.5 -23.5t78.5 -23.5t43.5 19.5t25.5 55.5l35 -5q-7 -55 -35 -85t-65 -30q-32 0 -87 23.5t-77 23.5q-61 0 -78 -76zM84 0v539h57v-539h-57z" />
    <glyph glyph-name="Imacron" unicode="&#x12a;" horiz-adv-x="242" 
d="M151 705v-705h-59v705h59zM-37 801v42h316v-42h-316z" />
    <glyph glyph-name="imacron" unicode="&#x12b;" horiz-adv-x="225" 
d="M-46 637v42h316v-42h-316zM84 0v539h57v-539h-57z" />
    <glyph glyph-name="Ibreve" unicode="&#x12c;" horiz-adv-x="242" 
d="M151 705v-705h-59v705h59zM121 788q-65 0 -104 33t-44 98l41 4q9 -92 107 -92q97 0 107 92l41 -4q-5 -65 -44.5 -98t-103.5 -33z" />
    <glyph glyph-name="ibreve" unicode="&#x12d;" horiz-adv-x="225" 
d="M113 624q-65 0 -104 33t-44 98l41 4q9 -92 107 -92q97 0 107 92l41 -4q-5 -65 -44.5 -98t-103.5 -33zM84 0v539h57v-539h-57z" />
    <glyph glyph-name="Iogonek" unicode="&#x12e;" horiz-adv-x="242" 
d="M178 -129l4 -36q-32 -6 -55 -6q-40 0 -61 18t-21 50q0 47 60 103h-13v705h59v-705l-7 -6q-6 -7 -14.5 -16.5t-17 -21t-14.5 -25t-6 -24.5q0 -17 11.5 -28t31.5 -12q18 0 43 4z" />
    <glyph glyph-name="iogonek" unicode="&#x12f;" horiz-adv-x="225" 
d="M84 0v539h57v-539l-7 -6q-6 -7 -14.5 -16.5t-17 -21t-14.5 -25t-6 -24.5q0 -17 11.5 -28t31.5 -12q18 0 43 4l4 -36q-32 -6 -55 -6q-40 0 -61 18t-21 50q0 47 60 103h-11zM112 643q-16 0 -27.5 11.5t-11.5 27.5q0 17 11.5 28.5t27.5 11.5t27.5 -11.5t11.5 -28.5
q0 -16 -11.5 -27.5t-27.5 -11.5z" />
    <glyph glyph-name="Idotaccent" unicode="&#x130;" horiz-adv-x="242" 
d="M151 705v-705h-59v705h59zM122 858q15 0 25 -10.5t10 -25.5q0 -14 -10 -24.5t-25 -10.5t-25 10.5t-10 24.5q0 15 10 25.5t25 10.5z" />
    <glyph glyph-name="dotlessi" unicode="&#x131;" horiz-adv-x="225" 
d="M84 0v539h57v-539h-57z" />
    <glyph glyph-name="IJ" unicode="&#x132;" horiz-adv-x="841" 
d="M151 705v-705h-59v705h59zM710 705h58v-417q0 -135 -62.5 -213.5t-186.5 -78.5q-92 0 -160.5 59t-82.5 148l52 5q14 -68 66.5 -112.5t123.5 -44.5q94 0 143 61.5t49 163.5v429z" />
    <glyph glyph-name="ij" unicode="&#x133;" horiz-adv-x="451" 
d="M84 0v539h57v-539h-57zM112 643q-16 0 -27.5 11.5t-11.5 27.5q0 17 11.5 28.5t27.5 11.5t27.5 -11.5t11.5 -28.5q0 -16 -11.5 -27.5t-27.5 -11.5zM310 -7v546h57v-565q0 -76 -43 -117.5t-109 -41.5q-30 0 -51 3v49q9 -1 33 -1q113 0 113 127zM338 643q-17 0 -28.5 11.5
t-11.5 27.5t12 28t28 12t27.5 -12t11.5 -28t-11.5 -27.5t-27.5 -11.5z" />
    <glyph glyph-name="Jcircumflex" unicode="&#x134;" horiz-adv-x="602" 
d="M463 705h58v-417q0 -135 -62.5 -213.5t-186.5 -78.5q-92 0 -160.5 59t-82.5 148l52 5q14 -68 66.5 -112.5t123.5 -44.5q94 0 143 61.5t49 163.5v429zM190 757l143 138h38l144 -138h-53l-110 100l-109 -100h-53z" />
    <glyph glyph-name="jcircumflex" unicode="&#x135;" horiz-adv-x="224" 
d="M83 -7v546h57v-565q0 -76 -43 -117.5t-109 -41.5q-30 0 -51 3v49q9 -1 33 -1q113 0 113 127zM-49 616l143 138h38l144 -138h-53l-110 100l-109 -100h-53z" />
    <glyph glyph-name="Kcommaaccent" unicode="&#x136;" horiz-adv-x="690" 
d="M326 363l323 -363h-79l-283 319l-139 -149v-170h-57v705h57v-452l419 452h73zM334 -68q40 0 40 -59q0 -48 -29.5 -82.5t-84.5 -34.5l-9 26q80 4 81 75q-14 1 -24 11.5t-10 25.5q0 16 11 27t25 11z" />
    <glyph glyph-name="kcommaaccent" unicode="&#x137;" horiz-adv-x="611" 
d="M372 333l214 -333h-64l-189 290l-194 -180v-110h-57v754h57v-568l375 353h72zM305 -68q40 0 40 -59q0 -48 -29.5 -82.5t-84.5 -34.5l-9 26q80 4 81 75q-14 1 -24 11.5t-10 25.5q0 16 11 27t25 11z" />
    <glyph glyph-name="kgreenlandic" unicode="&#x138;" horiz-adv-x="611" 
d="M372 333l214 -333h-64l-189 290l-194 -180v-110h-57v539h57v-353l375 353h72z" />
    <glyph glyph-name="Lacute" unicode="&#x139;" horiz-adv-x="594" 
d="M149 51h404v-51h-462v705h58v-654zM313 910l-169 -153h-45l148 159z" />
    <glyph glyph-name="lacute" unicode="&#x13a;" horiz-adv-x="223" 
d="M83 0v754h57v-754h-57zM310 959l-169 -153h-45l148 159z" />
    <glyph glyph-name="Lcommaaccent" unicode="&#x13b;" horiz-adv-x="594" 
d="M149 51h404v-51h-462v705h58v-654zM322 -68q40 0 40 -59q0 -48 -29.5 -82.5t-84.5 -34.5l-9 26q80 4 81 75q-14 1 -24 11.5t-10 25.5q0 16 11 27t25 11z" />
    <glyph glyph-name="lcommaaccent" unicode="&#x13c;" horiz-adv-x="223" 
d="M83 0v754h57v-754h-57zM107 -68q40 0 40 -59q0 -48 -29.5 -82.5t-84.5 -34.5l-9 26q80 4 81 75q-14 1 -24 11.5t-10 25.5q0 16 11 27t25 11z" />
    <glyph glyph-name="Lcaron" unicode="&#x13d;" horiz-adv-x="594" 
d="M149 51h404v-51h-462v705h58v-654zM302 706q40 0 40 -59q0 -48 -29.5 -82.5t-85.5 -34.5l-9 26q80 2 81 74q-14 2 -23.5 12.5t-9.5 25.5q0 16 11 27t25 11z" />
    <glyph glyph-name="lcaron" unicode="&#x13e;" horiz-adv-x="322" 
d="M83 0v754h57v-754h-57zM283 705q40 0 40 -59q0 -48 -29.5 -82.5t-85.5 -34.5l-9 26q80 2 81 74q-14 2 -23.5 12.5t-9.5 25.5q0 16 11 27t25 11z" />
    <glyph glyph-name="Ldot" unicode="&#x13f;" horiz-adv-x="594" 
d="M149 51h404v-51h-462v705h58v-654zM295 514q0 -16 -11.5 -27.5t-28.5 -11.5q-16 0 -27.5 11.5t-11.5 27.5t11.5 27.5t27.5 11.5q17 0 28.5 -11.5t11.5 -27.5z" />
    <glyph glyph-name="ldot" unicode="&#x140;" horiz-adv-x="281" 
d="M83 0v754h57v-754h-57zM272 514q0 -16 -11.5 -27.5t-28.5 -11.5q-16 0 -27.5 11.5t-11.5 27.5t11.5 27.5t27.5 11.5q17 0 28.5 -11.5t11.5 -27.5z" />
    <glyph glyph-name="Lslash" unicode="&#x141;" horiz-adv-x="594" 
d="M-4 279v56l95 27v343h58v-325l237 69v-57l-237 -69v-272h404v-51h-462v306z" />
    <glyph glyph-name="lslash" unicode="&#x142;" horiz-adv-x="317" 
d="M-20 276v56l131 38v384h58v-366l139 40v-56l-139 -41v-331h-58v314z" />
    <glyph glyph-name="Nacute" unicode="&#x143;" horiz-adv-x="771" 
d="M622 705h58v-705h-34l-497 594v-594h-58v705h33l498 -595v595zM580 910l-169 -153h-45l148 159z" />
    <glyph glyph-name="nacute" unicode="&#x144;" horiz-adv-x="640" 
d="M336 549q106 0 169 -61.5t63 -178.5v-309h-56v309q0 90 -51 139t-132 49q-114 0 -191 -69v-428h-56v539h56v-58q74 68 198 68zM507 759l-169 -153h-45l148 159z" />
    <glyph glyph-name="Ncommaaccent" unicode="&#x145;" horiz-adv-x="771" 
d="M622 705h58v-705h-34l-497 594v-594h-58v705h33l498 -595v595zM393 -68q40 0 40 -59q0 -48 -29.5 -82.5t-84.5 -34.5l-9 26q80 4 81 75q-14 1 -24 11.5t-10 25.5q0 16 11 27t25 11z" />
    <glyph glyph-name="ncommaaccent" unicode="&#x146;" horiz-adv-x="640" 
d="M336 549q106 0 169 -61.5t63 -178.5v-309h-56v309q0 90 -51 139t-132 49q-114 0 -191 -69v-428h-56v539h56v-58q74 68 198 68zM334 -68q40 0 40 -59q0 -48 -29.5 -82.5t-84.5 -34.5l-9 26q80 4 81 75q-14 1 -24 11.5t-10 25.5q0 16 11 27t25 11z" />
    <glyph glyph-name="Ncaron" unicode="&#x147;" horiz-adv-x="771" 
d="M622 705h58v-705h-34l-497 594v-594h-58v705h33l498 -595v595zM367 757l-143 138h53l109 -101l110 101h53l-144 -138h-38z" />
    <glyph glyph-name="ncaron" unicode="&#x148;" horiz-adv-x="640" 
d="M336 549q106 0 169 -61.5t63 -178.5v-309h-56v309q0 90 -51 139t-132 49q-114 0 -191 -69v-428h-56v539h56v-58q74 68 198 68zM294 606l-143 138h53l109 -101l110 101h53l-144 -138h-38z" />
    <glyph glyph-name="napostrophe" unicode="&#x149;" horiz-adv-x="640" 
d="M336 549q106 0 169 -61.5t63 -178.5v-309h-56v309q0 90 -51 139t-132 49q-114 0 -191 -69v-428h-56v539h56v-58q74 68 198 68zM136 778q40 0 40 -59q0 -48 -29.5 -82.5t-84.5 -34.5l-9 26q80 4 81 75q-14 1 -24 11.5t-10 25.5q0 16 11 27t25 11z" />
    <glyph glyph-name="Eng" unicode="&#x14a;" horiz-adv-x="771" 
d="M622 705h58v-699q0 -124 -65 -198.5t-185 -74.5q-92 0 -160.5 59t-82.5 148l53 6q14 -68 66.5 -112.5t122.5 -44.5q192 0 192 236l-472 574v-599h-58v705h33l498 -599v599z" />
    <glyph glyph-name="eng" unicode="&#x14b;" horiz-adv-x="640" 
d="M336 549q106 0 169 -61.5t63 -178.5v-335q0 -76 -42.5 -117.5t-108.5 -41.5q-29 0 -52 3v49q10 -1 33 -1q52 0 83 30t31 89v324q0 90 -51 139t-132 49q-114 0 -191 -69v-428h-56v539h56v-58q74 68 198 68z" />
    <glyph glyph-name="Omacron" unicode="&#x14c;" horiz-adv-x="854" 
d="M427 709q154 0 262.5 -104.5t108.5 -252.5t-108.5 -252t-262.5 -104t-263 104t-109 252t109 252.5t263 104.5zM427 51q129 0 220.5 88.5t91.5 212.5t-91.5 212.5t-220.5 88.5t-220.5 -88.5t-91.5 -212.5t91.5 -212.5t220.5 -88.5zM271 788v42h316v-42h-316z" />
    <glyph glyph-name="omacron" unicode="&#x14d;" horiz-adv-x="682" 
d="M341 549q121 0 207 -81t86 -196t-86 -195.5t-207 -80.5q-122 0 -208 80.5t-86 195.5t86 196t208 81zM341 48q98 0 167.5 65.5t69.5 158.5q0 94 -69.5 159.5t-167.5 65.5t-168 -65.5t-70 -159.5q0 -93 70 -158.5t168 -65.5zM184 637v42h316v-42h-316z" />
    <glyph glyph-name="Obreve" unicode="&#x14e;" horiz-adv-x="854" 
d="M427 709q154 0 262.5 -104.5t108.5 -252.5t-108.5 -252t-262.5 -104t-263 104t-109 252t109 252.5t263 104.5zM427 51q129 0 220.5 88.5t91.5 212.5t-91.5 212.5t-220.5 88.5t-220.5 -88.5t-91.5 -212.5t91.5 -212.5t220.5 -88.5zM423 775q-65 0 -104 33t-44 98l41 4
q9 -92 107 -92q97 0 107 92l41 -4q-5 -65 -44.5 -98t-103.5 -33z" />
    <glyph glyph-name="obreve" unicode="&#x14f;" horiz-adv-x="682" 
d="M341 549q121 0 207 -81t86 -196t-86 -195.5t-207 -80.5q-122 0 -208 80.5t-86 195.5t86 196t208 81zM341 48q98 0 167.5 65.5t69.5 158.5q0 94 -69.5 159.5t-167.5 65.5t-168 -65.5t-70 -159.5q0 -93 70 -158.5t168 -65.5zM340 624q-65 0 -104 33t-44 98l41 4
q9 -92 107 -92q97 0 107 92l41 -4q-5 -65 -44.5 -98t-103.5 -33z" />
    <glyph glyph-name="Ohungarumlaut" unicode="&#x150;" horiz-adv-x="854" 
d="M427 709q154 0 262.5 -104.5t108.5 -252.5t-108.5 -252t-262.5 -104t-263 104t-109 252t109 252.5t263 104.5zM427 51q129 0 220.5 88.5t91.5 212.5t-91.5 212.5t-220.5 88.5t-220.5 -88.5t-91.5 -212.5t91.5 -212.5t220.5 -88.5zM415 913l55 -18l-100 -136h-47zM472 759
l92 154l57 -19l-102 -135h-47z" />
    <glyph glyph-name="ohungarumlaut" unicode="&#x151;" horiz-adv-x="682" 
d="M341 549q121 0 207 -81t86 -196t-86 -195.5t-207 -80.5q-122 0 -208 80.5t-86 195.5t86 196t208 81zM341 48q98 0 167.5 65.5t69.5 158.5q0 94 -69.5 159.5t-167.5 65.5t-168 -65.5t-70 -159.5q0 -93 70 -158.5t168 -65.5zM327 762l55 -18l-100 -136h-47zM384 608l92 154
l57 -19l-102 -135h-47z" />
    <glyph glyph-name="OE" unicode="&#x152;" horiz-adv-x="1022" 
d="M55 352q0 147 107.5 250t259.5 103h528v-52h-418v-285h356v-52h-356v-264h439v-52h-553q-150 0 -256.5 103.5t-106.5 248.5zM427 52h48v601h-53q-127 0 -217.5 -81.5t-90.5 -219.5q0 -139 92 -219.5t221 -80.5z" />
    <glyph glyph-name="oe" unicode="&#x153;" horiz-adv-x="1161" 
d="M339 -5q-121 0 -206 81t-85 196t85.5 196t206.5 81q91 0 164 -48t99 -123q24 76 91 123.5t157 47.5q121 0 191 -78.5t70 -202.5v-16h-479q5 -90 67 -149t155 -59q127 0 197 86l37 -30q-82 -105 -235 -105q-91 0 -159 47.5t-92 123.5q-26 -75 -99.5 -123t-164.5 -48z
M341 48q99 0 167.5 65.5t68.5 158.5q0 94 -69 159.5t-168 65.5t-167.5 -65.5t-68.5 -159.5q0 -93 69 -158.5t168 -65.5zM850 502q-90 0 -150 -58.5t-68 -147.5h424q-6 93 -61 149.5t-145 56.5z" />
    <glyph glyph-name="Racute" unicode="&#x154;" horiz-adv-x="676" 
d="M569 0l-172 234q-23 -4 -56 -4h-192v-230h-58v705h279q130 0 190.5 -65.5t60.5 -164.5q0 -183 -165 -230l184 -245h-71zM149 653v-372h191q103 0 161.5 48t58.5 143q0 78 -47.5 129.5t-149.5 51.5h-214zM515 910l-169 -153h-45l148 159z" />
    <glyph glyph-name="racute" unicode="&#x155;" horiz-adv-x="434" 
d="M139 539v-118q25 60 71.5 94t109.5 34q43 0 81 -19l-8 -58q-42 18 -83 18q-77 0 -124 -61t-47 -151v-278h-57v539h57zM313 769l-169 -153h-45l148 159z" />
    <glyph glyph-name="Rcommaaccent" unicode="&#x156;" horiz-adv-x="676" 
d="M569 0l-172 234q-23 -4 -56 -4h-192v-230h-58v705h279q130 0 190.5 -65.5t60.5 -164.5q0 -183 -165 -230l184 -245h-71zM149 653v-372h191q103 0 161.5 48t58.5 143q0 78 -47.5 129.5t-149.5 51.5h-214zM353 -68q40 0 40 -59q0 -48 -29.5 -82.5t-84.5 -34.5l-9 26
q80 4 81 75q-14 1 -24 11.5t-10 25.5q0 16 11 27t25 11z" />
    <glyph glyph-name="rcommaaccent" unicode="&#x157;" horiz-adv-x="434" 
d="M139 539v-118q25 60 71.5 94t109.5 34q43 0 81 -19l-8 -58q-42 18 -83 18q-77 0 -124 -61t-47 -151v-278h-57v539h57zM114 -68q40 0 40 -59q0 -48 -29.5 -82.5t-84.5 -34.5l-9 26q80 4 81 75q-14 1 -24 11.5t-10 25.5q0 16 11 27t25 11z" />
    <glyph glyph-name="Rcaron" unicode="&#x158;" horiz-adv-x="676" 
d="M569 0l-172 234q-23 -4 -56 -4h-192v-230h-58v705h279q130 0 190.5 -65.5t60.5 -164.5q0 -183 -165 -230l184 -245h-71zM149 653v-372h191q103 0 161.5 48t58.5 143q0 78 -47.5 129.5t-149.5 51.5h-214zM310 757l-143 138h53l109 -101l110 101h53l-144 -138h-38z" />
    <glyph glyph-name="rcaron" unicode="&#x159;" horiz-adv-x="434" 
d="M139 539v-118q25 60 71.5 94t109.5 34q43 0 81 -19l-8 -58q-42 18 -83 18q-77 0 -124 -61t-47 -151v-278h-57v539h57zM208 616l-143 138h53l109 -101l110 101h53l-144 -138h-38z" />
    <glyph glyph-name="Sacute" unicode="&#x15a;" horiz-adv-x="637" 
d="M336 380q46 -11 78.5 -21t66.5 -26.5t54.5 -35.5t33.5 -47.5t13 -63.5q0 -90 -69 -140t-186 -50q-87 0 -139 12t-134 53l23 47q75 -37 124.5 -48t127.5 -11q89 0 141.5 35t52.5 99q0 31 -14.5 54t-45 39.5t-62 27t-81.5 22.5q-49 12 -81.5 21.5t-69.5 26t-58.5 35.5
t-36 48t-14.5 65q0 83 66 135t177 52q65 0 134.5 -15t115.5 -40q-3 -6 -13 -25.5t-12 -22.5q-43 22 -107.5 36t-118.5 14q-84 0 -133 -36t-49 -95q0 -25 11.5 -45t28.5 -34t47.5 -26.5t58.5 -21t70 -18.5zM507 910l-169 -153h-45l148 159z" />
    <glyph glyph-name="sacute" unicode="&#x15b;" horiz-adv-x="533" 
d="M47 45l22 45q112 -46 204 -46q82 0 121 30t39 75q0 42 -43 65t-129 41q-99 21 -151.5 54.5t-52.5 93.5q0 64 56.5 105t142.5 41q101 0 200 -41l-19 -44q-83 37 -182 37q-63 0 -104 -27t-41 -69q0 -39 40 -61t126 -39q104 -21 157 -55t53 -98q0 -68 -53 -112t-161 -44
q-113 0 -225 49zM444 759l-169 -153h-45l148 159z" />
    <glyph glyph-name="Scircumflex" unicode="&#x15c;" horiz-adv-x="637" 
d="M336 380q46 -11 78.5 -21t66.5 -26.5t54.5 -35.5t33.5 -47.5t13 -63.5q0 -90 -69 -140t-186 -50q-87 0 -139 12t-134 53l23 47q75 -37 124.5 -48t127.5 -11q89 0 141.5 35t52.5 99q0 31 -14.5 54t-45 39.5t-62 27t-81.5 22.5q-49 12 -81.5 21.5t-69.5 26t-58.5 35.5
t-36 48t-14.5 65q0 83 66 135t177 52q65 0 134.5 -15t115.5 -40q-3 -6 -13 -25.5t-12 -22.5q-43 22 -107.5 36t-118.5 14q-84 0 -133 -36t-49 -95q0 -25 11.5 -45t28.5 -34t47.5 -26.5t58.5 -21t70 -18.5zM153 757l143 138h38l144 -138h-53l-110 100l-109 -100h-53z" />
    <glyph glyph-name="scircumflex" unicode="&#x15d;" horiz-adv-x="533" 
d="M47 45l22 45q112 -46 204 -46q82 0 121 30t39 75q0 42 -43 65t-129 41q-99 21 -151.5 54.5t-52.5 93.5q0 64 56.5 105t142.5 41q101 0 200 -41l-19 -44q-83 37 -182 37q-63 0 -104 -27t-41 -69q0 -39 40 -61t126 -39q104 -21 157 -55t53 -98q0 -68 -53 -112t-161 -44
q-113 0 -225 49zM92 606l143 138h38l144 -138h-53l-110 100l-109 -100h-53z" />
    <glyph glyph-name="Scedilla" unicode="&#x15e;" horiz-adv-x="637" 
d="M276 -75l46 71q-84 1 -136 13t-132 52l23 47q75 -37 124.5 -48t127.5 -11q89 0 141.5 35t52.5 99q0 31 -14.5 54t-45 39.5t-62 27t-81.5 22.5q-49 12 -81.5 21.5t-69.5 26t-58.5 35.5t-36 48t-14.5 65q0 83 66 135t177 52q65 0 134.5 -15t115.5 -40q-3 -6 -13 -25.5
t-12 -22.5q-43 22 -107.5 36t-118.5 14q-84 0 -133 -36t-49 -95q0 -25 11.5 -45t28.5 -34t47.5 -26.5t58.5 -21t70 -18.5q46 -11 78.5 -21t66.5 -26.5t54.5 -35.5t33.5 -47.5t13 -63.5q0 -84 -59 -133t-161 -56l-26 -55q23 0 38.5 -15t15.5 -40q0 -30 -25.5 -51.5
t-76.5 -21.5q-15 0 -29.5 2t-21.5 4l-7 1l3 28q30 -7 50 -7q31 0 48 14t17 33q0 36 -72 36z" />
    <glyph glyph-name="scedilla" unicode="&#x15f;" horiz-adv-x="533" 
d="M208 -75l47 71q-106 4 -208 49l22 45q112 -46 204 -46q82 0 121 30t39 75q0 42 -43 65t-129 41q-99 21 -151.5 54.5t-52.5 93.5q0 64 56.5 105t142.5 41q101 0 200 -41l-19 -44q-83 37 -182 37q-63 0 -104 -27t-41 -69q0 -39 40 -61t126 -39q104 -21 157 -55t53 -98
q0 -65 -47.5 -108t-144.5 -47l-26 -55q23 0 38.5 -15t15.5 -40q0 -30 -25.5 -51.5t-76.5 -21.5q-15 0 -29.5 2t-21.5 4l-7 1l3 28q30 -7 50 -7q31 0 48 14t17 33q0 36 -72 36z" />
    <glyph glyph-name="Scaron" unicode="&#x160;" horiz-adv-x="637" 
d="M336 380q46 -11 78.5 -21t66.5 -26.5t54.5 -35.5t33.5 -47.5t13 -63.5q0 -90 -69 -140t-186 -50q-87 0 -139 12t-134 53l23 47q75 -37 124.5 -48t127.5 -11q89 0 141.5 35t52.5 99q0 31 -14.5 54t-45 39.5t-62 27t-81.5 22.5q-49 12 -81.5 21.5t-69.5 26t-58.5 35.5
t-36 48t-14.5 65q0 83 66 135t177 52q65 0 134.5 -15t115.5 -40q-3 -6 -13 -25.5t-12 -22.5q-43 22 -107.5 36t-118.5 14q-84 0 -133 -36t-49 -95q0 -25 11.5 -45t28.5 -34t47.5 -26.5t58.5 -21t70 -18.5zM294 757l-143 138h53l109 -101l110 101h53l-144 -138h-38z" />
    <glyph glyph-name="scaron" unicode="&#x161;" horiz-adv-x="533" 
d="M47 45l22 45q112 -46 204 -46q82 0 121 30t39 75q0 42 -43 65t-129 41q-99 21 -151.5 54.5t-52.5 93.5q0 64 56.5 105t142.5 41q101 0 200 -41l-19 -44q-83 37 -182 37q-63 0 -104 -27t-41 -69q0 -39 40 -61t126 -39q104 -21 157 -55t53 -98q0 -68 -53 -112t-161 -44
q-113 0 -225 49zM237 606l-143 138h53l109 -101l110 101h53l-144 -138h-38z" />
    <glyph glyph-name="Tcedilla" unicode="&#x162;" horiz-adv-x="660" 
d="M273 -75l49 75h-20v653h-249v52h559v-52h-251v-653h-1l-27 -58q23 0 38.5 -15t15.5 -40q0 -30 -25.5 -51.5t-76.5 -21.5q-15 0 -29.5 2t-21.5 4l-7 1l3 28q30 -7 50 -7q31 0 48 14t17 33q0 36 -72 36z" />
    <glyph glyph-name="tcedilla" unicode="&#x163;" horiz-adv-x="395" 
d="M245 -75l47 72q-8 -1 -23 -1q-66 0 -109 41.5t-43 117.5v335h-95v49h95v215h57v-215h199v-49h-199v-306q0 -137 113 -137q43 0 84 9v-47q-12 -5 -39 -9l-27 -58q23 0 38.5 -15t15.5 -40q0 -30 -25.5 -51.5t-76.5 -21.5q-15 0 -29.5 2t-21.5 4l-7 1l3 28q30 -7 50 -7
q31 0 48 14t17 33q0 36 -72 36z" />
    <glyph glyph-name="Tcaron" unicode="&#x164;" horiz-adv-x="660" 
d="M612 705v-52h-251v-653h-59v653h-249v52h559zM314 757l-143 138h53l109 -101l110 101h53l-144 -138h-38z" />
    <glyph glyph-name="tcaron" unicode="&#x165;" horiz-adv-x="430" 
d="M373 490h-199v-306q0 -137 113 -137q43 0 84 9v-47q-42 -13 -102 -13q-66 0 -109 41.5t-43 117.5v335h-95v49h95v215h57v-215h199v-49zM423 745q40 0 40 -59q0 -48 -29.5 -82.5t-85.5 -34.5l-9 26q80 2 81 74q-14 2 -23.5 12.5t-9.5 25.5q0 16 11 27t25 11z" />
    <glyph glyph-name="Tbar" unicode="&#x166;" horiz-adv-x="660" 
d="M174 351v42h128v260h-249v52h559v-52h-251v-260h129v-42h-129v-351h-59v351h-128z" />
    <glyph glyph-name="tbar" unicode="&#x167;" horiz-adv-x="395" 
d="M40 334v42h77v114h-95v49h95v215h57v-215h199v-49h-199v-114h182v-42h-182v-150q0 -137 113 -137q43 0 84 9v-47q-42 -13 -102 -13q-66 0 -109 41.5t-43 117.5v179h-77z" />
    <glyph glyph-name="Utilde" unicode="&#x168;" horiz-adv-x="755" 
d="M666 705v-422q0 -125 -76.5 -206t-212.5 -81t-212 80.5t-76 206.5v422h57v-411q0 -110 60.5 -176.5t170.5 -66.5q111 0 171.5 67t60.5 176v411h57zM227 757l-35 4q7 57 35 87t74 30q31 0 85.5 -23.5t78.5 -23.5t43.5 19.5t25.5 55.5l35 -5q-7 -55 -35 -85t-65 -30
q-32 0 -87 23.5t-77 23.5q-61 0 -78 -76z" />
    <glyph glyph-name="utilde" unicode="&#x169;" horiz-adv-x="648" 
d="M509 539h56v-539h-56v64q-76 -68 -206 -68q-106 0 -169 61.5t-63 178.5v303h56v-303q0 -89 51 -138.5t132 -49.5q119 0 199 69v422zM169 606l-35 4q7 57 35 87t74 30q31 0 85.5 -23.5t78.5 -23.5t43.5 19.5t25.5 55.5l35 -5q-7 -55 -35 -85t-65 -30q-32 0 -87 23.5
t-77 23.5q-61 0 -78 -76z" />
    <glyph glyph-name="Umacron" unicode="&#x16a;" horiz-adv-x="755" 
d="M666 705v-422q0 -125 -76.5 -206t-212.5 -81t-212 80.5t-76 206.5v422h57v-411q0 -110 60.5 -176.5t170.5 -66.5q111 0 171.5 67t60.5 176v411h57zM220 788v42h316v-42h-316z" />
    <glyph glyph-name="umacron" unicode="&#x16b;" horiz-adv-x="648" 
d="M509 539h56v-539h-56v64q-76 -68 -206 -68q-106 0 -169 61.5t-63 178.5v303h56v-303q0 -89 51 -138.5t132 -49.5q119 0 199 69v422zM163 637v42h316v-42h-316z" />
    <glyph glyph-name="Ubreve" unicode="&#x16c;" horiz-adv-x="755" 
d="M666 705v-422q0 -125 -76.5 -206t-212.5 -81t-212 80.5t-76 206.5v422h57v-411q0 -110 60.5 -176.5t170.5 -66.5q111 0 171.5 67t60.5 176v411h57zM380 775q-65 0 -104 33t-44 98l41 4q9 -92 107 -92q97 0 107 92l41 -4q-5 -65 -44.5 -98t-103.5 -33z" />
    <glyph glyph-name="ubreve" unicode="&#x16d;" horiz-adv-x="648" 
d="M509 539h56v-539h-56v64q-76 -68 -206 -68q-106 0 -169 61.5t-63 178.5v303h56v-303q0 -89 51 -138.5t132 -49.5q119 0 199 69v422zM321 624q-65 0 -104 33t-44 98l41 4q9 -92 107 -92q97 0 107 92l41 -4q-5 -65 -44.5 -98t-103.5 -33z" />
    <glyph glyph-name="Uring" unicode="&#x16e;" horiz-adv-x="755" 
d="M666 705v-422q0 -125 -76.5 -206t-212.5 -81t-212 80.5t-76 206.5v422h57v-411q0 -110 60.5 -176.5t170.5 -66.5q111 0 171.5 67t60.5 176v411h57zM289 770q0 36 27 62.5t63 26.5t63 -26.5t27 -62.5t-27 -62.5t-63 -26.5t-63 26.5t-27 62.5zM379 714q23 0 40 16.5
t17 39.5t-17 40t-40 17t-40 -17t-17 -40t17 -39.5t40 -16.5z" />
    <glyph glyph-name="uring" unicode="&#x16f;" horiz-adv-x="648" 
d="M509 539h56v-539h-56v64q-76 -68 -206 -68q-106 0 -169 61.5t-63 178.5v303h56v-303q0 -89 51 -138.5t132 -49.5q119 0 199 69v422zM235 721q0 36 27 62.5t63 26.5t63 -26.5t27 -62.5t-27 -62.5t-63 -26.5t-63 26.5t-27 62.5zM325 665q23 0 40 16.5t17 39.5t-17 40
t-40 17t-40 -17t-17 -40t17 -39.5t40 -16.5z" />
    <glyph glyph-name="Uhungarumlaut" unicode="&#x170;" horiz-adv-x="755" 
d="M666 705v-422q0 -125 -76.5 -206t-212.5 -81t-212 80.5t-76 206.5v422h57v-411q0 -110 60.5 -176.5t170.5 -66.5q111 0 171.5 67t60.5 176v411h57zM372 913l55 -18l-100 -136h-47zM429 759l92 154l57 -19l-102 -135h-47z" />
    <glyph glyph-name="uhungarumlaut" unicode="&#x171;" horiz-adv-x="648" 
d="M509 539h56v-539h-56v64q-76 -68 -206 -68q-106 0 -169 61.5t-63 178.5v303h56v-303q0 -89 51 -138.5t132 -49.5q119 0 199 69v422zM309 762l55 -18l-100 -136h-47zM366 608l92 154l57 -19l-102 -135h-47z" />
    <glyph glyph-name="Uogonek" unicode="&#x172;" horiz-adv-x="755" 
d="M456 -129l4 -36q-31 -6 -55 -6q-40 0 -61 18t-21 50q0 49 56 99h-2q-136 0 -212 80.5t-76 206.5v422h57v-411q0 -110 60.5 -176.5t170.5 -66.5q111 0 171.5 67t60.5 176v411h57v-422q0 -112 -62.5 -190.5t-175.5 -93.5q-58 -58 -58 -92q0 -17 11.5 -28t31.5 -12
q18 0 43 4z" />
    <glyph glyph-name="uogonek" unicode="&#x173;" horiz-adv-x="648" 
d="M592 -129l4 -36q-32 -6 -55 -6q-40 0 -61 18t-21 50q0 47 60 103h-10v64q-76 -68 -206 -68q-106 0 -169 61.5t-63 178.5v303h56v-303q0 -89 51 -138.5t132 -49.5q119 0 199 69v422h56v-539l-7 -6q-6 -7 -14.5 -16.5t-17 -21t-14.5 -25t-6 -24.5q0 -17 11.5 -28t31.5 -12
q18 0 43 4z" />
    <glyph glyph-name="Wcircumflex" unicode="&#x174;" horiz-adv-x="1117" 
d="M1078 705l-269 -705h-29l-226 604l-226 -604h-29l-269 705h63l222 -595l223 595h32l222 -595l223 595h63zM391 757l143 138h38l144 -138h-53l-110 100l-109 -100h-53z" />
    <glyph glyph-name="wcircumflex" unicode="&#x175;" horiz-adv-x="851" 
d="M775 539h58l-209 -539h-35l-164 447l-163 -447h-35l-209 539h58l172 -443l160 443h34l162 -443zM263 597l143 138h38l144 -138h-53l-110 100l-109 -100h-53z" />
    <glyph glyph-name="Ycircumflex" unicode="&#x176;" horiz-adv-x="658" 
d="M569 705h68l-278 -462v-243h-59v243l-278 462h67l240 -401zM168 757l143 138h38l144 -138h-53l-110 100l-109 -100h-53z" />
    <glyph glyph-name="ycircumflex" unicode="&#x177;" horiz-adv-x="610" 
d="M516 539h60l-228 -568q-26 -65 -84.5 -103.5t-130.5 -48.5q-31 -4 -90 -4l5 47h12q189 0 240 138h-27l-242 539h61l214 -473h22zM150 606l143 138h38l144 -138h-53l-110 100l-109 -100h-53z" />
    <glyph glyph-name="Ydieresis" unicode="&#x178;" horiz-adv-x="658" 
d="M569 705h68l-278 -462v-243h-59v243l-278 462h67l240 -401zM411 845q15 0 25 -10.5t10 -25.5q0 -14 -10 -24.5t-25 -10.5t-25 10.5t-10 24.5q0 15 10 25.5t25 10.5zM249 845q15 0 25.5 -10.5t10.5 -25.5q0 -14 -10.5 -24.5t-25.5 -10.5q-14 0 -24.5 10.5t-10.5 24.5
q0 15 10.5 25.5t24.5 10.5z" />
    <glyph glyph-name="Zacute" unicode="&#x179;" horiz-adv-x="656" 
d="M603 705v-27l-468 -626h474v-52h-560v26l468 627h-442v52h528zM539 910l-169 -153h-45l148 159z" />
    <glyph glyph-name="zacute" unicode="&#x17a;" horiz-adv-x="586" 
d="M547 510l-413 -461h411v-49h-497v32l411 458h-395v49h483v-29zM474 759l-169 -153h-45l148 159z" />
    <glyph glyph-name="Zdotaccent" unicode="&#x17b;" horiz-adv-x="656" 
d="M603 705v-27l-468 -626h474v-52h-560v26l468 627h-442v52h528zM338 845q15 0 25 -10.5t10 -25.5q0 -14 -10 -24.5t-25 -10.5t-25 10.5t-10 24.5q0 15 10 25.5t25 10.5z" />
    <glyph glyph-name="zdotaccent" unicode="&#x17c;" horiz-adv-x="586" 
d="M547 510l-413 -461h411v-49h-497v32l411 458h-395v49h483v-29zM299 694q15 0 25 -10.5t10 -25.5q0 -14 -10 -24.5t-25 -10.5t-25 10.5t-10 24.5q0 15 10 25.5t25 10.5z" />
    <glyph glyph-name="Zcaron" unicode="&#x17d;" horiz-adv-x="656" 
d="M603 705v-27l-468 -626h474v-52h-560v26l468 627h-442v52h528zM317 757l-143 138h53l109 -101l110 101h53l-144 -138h-38z" />
    <glyph glyph-name="zcaron" unicode="&#x17e;" horiz-adv-x="586" 
d="M547 510l-413 -461h411v-49h-497v32l411 458h-395v49h483v-29zM286 606l-143 138h53l109 -101l110 101h53l-144 -138h-38z" />
    <glyph glyph-name="florin" unicode="&#x192;" horiz-adv-x="553" 
d="M529 729v-46q-32 17 -70 17q-53 0 -88.5 -31t-47.5 -92l-16 -82h163v-49h-172l-46 -247q-14 -76 -65.5 -117.5t-117.5 -41.5q-18 0 -45 9v48q16 -6 36 -6q53 0 90 33.5t49 97.5l42 224h-111v49h121l18 97q14 76 65.5 117.5t117.5 41.5q55 0 77 -22z" />
    <glyph glyph-name="Aringacute" unicode="&#x1fa;" horiz-adv-x="723" 
d="M557 982l-150 -135q46 -27 46 -77q0 -29 -18 -53t-46 -32l312 -685h-62l-85 192h-386l-84 -192h-62l312 686q-27 9 -44 32.5t-17 51.5q0 36 27 62.5t63 26.5q1 0 3.5 -0.5t3.5 -0.5l121 130zM361 627l-171 -386h343zM363 714q23 0 40 16.5t17 39.5t-17 40t-40 17t-40 -17
t-17 -40t17 -39.5t40 -16.5z" />
    <glyph glyph-name="aringacute" unicode="&#x1fb;" horiz-adv-x="668" 
d="M530 539h56v-539h-56v60q-83 -64 -202 -64q-118 0 -198.5 81.5t-80.5 195.5t80.5 195.5t198.5 81.5q120 0 202 -67v56zM530 118v307q-75 72 -195 72q-97 0 -163.5 -65.5t-66.5 -158.5t67 -159t163 -66q122 0 195 70zM533 932l-150 -136q44 -25 44 -75q0 -36 -27 -62.5
t-63 -26.5t-63 26.5t-27 62.5t27 62.5t63 26.5q7 0 10 -1l120 129zM337 665q23 0 40 16.5t17 39.5t-17 40t-40 17t-40 -17t-17 -40t17 -39.5t40 -16.5z" />
    <glyph glyph-name="AEacute" unicode="&#x1fc;" horiz-adv-x="994" 
d="M504 52h439v-52h-496v192h-267l-101 -192h-63l375 705h531v-52h-418v-285h356v-52h-356v-264zM421 649l-217 -408h243v408h-26zM647 910l-169 -153h-45l148 159z" />
    <glyph glyph-name="aeacute" unicode="&#x1fd;" horiz-adv-x="1129" 
d="M587 0h-56v60q-83 -64 -202 -64q-116 0 -198 80t-82 197t82 196.5t198 79.5q123 0 202 -66v56h56v-127q32 63 93 100.5t138 37.5q121 -1 191 -79.5t70 -202.5v-16h-479q5 -90 67 -149t156 -59q125 0 197 86l37 -30q-83 -104 -235 -104q-80 0 -142 37t-93 101v-134z
M531 118v307q-75 72 -195 72q-96 0 -163.5 -65t-67.5 -159q0 -95 67.5 -160t163.5 -65q122 0 195 70zM818 502q-91 0 -151 -58.5t-67 -147.5h424q-7 93 -62 149.5t-144 56.5zM755 769l-169 -153h-45l148 159z" />
    <glyph glyph-name="Oslashacute" unicode="&#x1fe;" horiz-adv-x="855" 
d="M608 910l-169 -153h-45l148 159zM100 0l77 89q-57 50 -89.5 118t-32.5 145q0 148 109 252.5t263 104.5q124 0 222 -72l59 68h54l-81 -94q117 -106 117 -259q0 -148 -108.5 -252t-262.5 -104q-123 0 -219 68l-55 -64h-53zM115 352q0 -128 100 -217l397 458q-81 60 -185 60
q-129 0 -220.5 -88.5t-91.5 -212.5zM427 51q129 0 220.5 88.5t91.5 212.5q0 127 -97 213l-396 -457q81 -57 181 -57z" />
    <glyph glyph-name="oslashacute" unicode="&#x1ff;" horiz-adv-x="681" 
d="M521 769l-169 -153h-45l148 159zM74 0l64 73q-91 80 -91 199q0 115 86 196t208 81q97 0 172 -53l44 50h49l-65 -73q93 -82 93 -201q0 -115 -86 -195.5t-207 -80.5q-97 0 -174 53l-45 -49h-48zM341 48q98 0 167.5 65.5t69.5 158.5q0 94 -75 158l-300 -339q58 -43 138 -43z
M103 272q0 -93 72 -157l302 340q-61 42 -136 42q-98 0 -168 -65.5t-70 -159.5z" />
    <glyph glyph-name="Scommaaccent" unicode="&#x218;" horiz-adv-x="637" 
d="M336 380q46 -11 78.5 -21t66.5 -26.5t54.5 -35.5t33.5 -47.5t13 -63.5q0 -90 -69 -140t-186 -50q-87 0 -139 12t-134 53l23 47q75 -37 124.5 -48t127.5 -11q89 0 141.5 35t52.5 99q0 31 -14.5 54t-45 39.5t-62 27t-81.5 22.5q-49 12 -81.5 21.5t-69.5 26t-58.5 35.5
t-36 48t-14.5 65q0 83 66 135t177 52q65 0 134.5 -15t115.5 -40q-3 -6 -13 -25.5t-12 -22.5q-43 22 -107.5 36t-118.5 14q-84 0 -133 -36t-49 -95q0 -25 11.5 -45t28.5 -34t47.5 -26.5t58.5 -21t70 -18.5zM329 -68q40 0 40 -59q0 -48 -29.5 -82.5t-84.5 -34.5l-9 26
q80 4 81 75q-14 1 -24 11.5t-10 25.5q0 16 11 27t25 11z" />
    <glyph glyph-name="scommaaccent" unicode="&#x219;" horiz-adv-x="533" 
d="M47 45l22 45q112 -46 204 -46q82 0 121 30t39 75q0 42 -43 65t-129 41q-99 21 -151.5 54.5t-52.5 93.5q0 64 56.5 105t142.5 41q101 0 200 -41l-19 -44q-83 37 -182 37q-63 0 -104 -27t-41 -69q0 -39 40 -61t126 -39q104 -21 157 -55t53 -98q0 -68 -53 -112t-161 -44
q-113 0 -225 49zM275 -68q40 0 40 -59q0 -48 -29.5 -82.5t-84.5 -34.5l-9 26q80 4 81 75q-14 1 -24 11.5t-10 25.5q0 16 11 27t25 11z" />
    <glyph glyph-name="uni021A" unicode="&#x21a;" horiz-adv-x="660" 
d="M612 705v-52h-251v-653h-59v653h-249v52h559zM329 -68q40 0 40 -59q0 -48 -29.5 -82.5t-84.5 -34.5l-9 26q80 4 81 75q-14 1 -24 11.5t-10 25.5q0 16 11 27t25 11z" />
    <glyph glyph-name="uni021B" unicode="&#x21b;" horiz-adv-x="395" 
d="M373 490h-199v-306q0 -137 113 -137q43 0 84 9v-47q-42 -13 -102 -13q-66 0 -109 41.5t-43 117.5v335h-95v49h95v215h57v-215h199v-49zM239 -68q40 0 40 -59q0 -48 -29.5 -82.5t-84.5 -34.5l-9 26q80 4 81 75q-14 1 -24 11.5t-10 25.5q0 16 11 27t25 11z" />
    <glyph glyph-name="dotlessj" unicode="&#x237;" horiz-adv-x="224" 
d="M83 -7v546h57v-565q0 -76 -43 -117.5t-109 -41.5q-30 0 -51 3v49q9 -1 33 -1q113 0 113 127z" />
    <glyph glyph-name="circumflex" unicode="&#x2c6;" horiz-adv-x="500" 
d="M86 757l143 138h38l144 -138h-53l-110 100l-109 -100h-53z" />
    <glyph glyph-name="caron" unicode="&#x2c7;" horiz-adv-x="500" 
d="M229 757l-143 138h53l109 -101l110 101h53l-144 -138h-38z" />
    <glyph glyph-name="breve" unicode="&#x2d8;" horiz-adv-x="500" 
d="M251 775q-65 0 -104 33t-44 98l41 4q9 -92 107 -92q97 0 107 92l41 -4q-5 -65 -44.5 -98t-103.5 -33z" />
    <glyph glyph-name="dotaccent" unicode="&#x2d9;" horiz-adv-x="379" 
d="M176 845q15 0 25 -10.5t10 -25.5q0 -14 -10 -24.5t-25 -10.5t-25 10.5t-10 24.5q0 15 10 25.5t25 10.5z" />
    <glyph glyph-name="ring" unicode="&#x2da;" horiz-adv-x="500" 
d="M159 770q0 36 27 62.5t63 26.5t63 -26.5t27 -62.5t-27 -62.5t-63 -26.5t-63 26.5t-27 62.5zM249 714q23 0 40 16.5t17 39.5t-17 40t-40 17t-40 -17t-17 -40t17 -39.5t40 -16.5z" />
    <glyph glyph-name="ogonek" unicode="&#x2db;" horiz-adv-x="500" 
d="M317 -129l4 -36q-31 -6 -55 -6q-40 0 -61 18t-21 50q0 10 2.5 20t7 18.5t10.5 17.5t11.5 16t12 14t10.5 11l8 8l4 3l40 -5l-6 -6q-7 -7 -15.5 -16.5t-17 -21t-14.5 -25t-6 -24.5q0 -17 11.5 -28t31.5 -12q18 0 43 4z" />
    <glyph glyph-name="tilde" unicode="&#x2dc;" horiz-adv-x="500" 
d="M94 757l-35 4q7 57 35 87t74 30q31 0 85.5 -23.5t78.5 -23.5t43.5 19.5t25.5 55.5l35 -5q-7 -55 -35 -85t-65 -30q-32 0 -87 23.5t-77 23.5q-61 0 -78 -76z" />
    <glyph glyph-name="hungarumlaut" unicode="&#x2dd;" horiz-adv-x="500" 
d="M179 913l55 -18l-100 -136h-47zM236 759l92 154l57 -19l-102 -135h-47z" />
    <glyph glyph-name="uni037E" unicode="&#x37e;" horiz-adv-x="202" 
d="M98 458q-16 0 -27.5 11.5t-11.5 28.5q0 16 11.5 27.5t27.5 11.5t27.5 -11.5t11.5 -27.5q0 -17 -11.5 -28.5t-27.5 -11.5zM97 75q19 0 30 -14t11 -37q0 -66 -31.5 -106.5t-81.5 -42.5l-9 27q30 3 54 29t25 65q-15 2 -25 12.5t-10 26.5t11.5 28t25.5 12z" />
    <glyph glyph-name="tonos" unicode="&#x384;" horiz-adv-x="413" 
d="M359 706l-177 -156h-48l160 162z" />
    <glyph glyph-name="dieresistonos" unicode="&#x385;" horiz-adv-x="570" 
d="M138 687q15 0 25 -10.5t10 -25.5t-10 -25t-25 -10t-25 10t-10 25t10 25.5t25 10.5zM429 687q15 0 25 -10.5t10 -25.5t-10 -25t-25 -10t-25 10t-10 25t10 25.5t25 10.5zM254 589l66 188l47 -9l-74 -179h-39z" />
    <glyph glyph-name="Alphatonos" unicode="&#x386;" horiz-adv-x="723" 
d="M639 0l-85 192h-386l-84 -192h-62l321 705h37l321 -705h-62zM361 627l-171 -386h343zM244 706l-177 -156h-48l160 162z" />
    <glyph glyph-name="anoteleia" unicode="&#x387;" horiz-adv-x="183" 
d="M118 490q0 -17 -11.5 -28.5t-27.5 -11.5t-27.5 11.5t-11.5 28.5q0 16 11 27.5t28 11.5t28 -11.5t11 -27.5z" />
    <glyph glyph-name="Epsilontonos" unicode="&#x388;" 
d="M26 706l-177 -156h-48l160 162zM148 52h439v-52h-496v705h475v-52h-418v-285h356v-52h-356v-264z" />
    <glyph glyph-name="Etatonos" unicode="&#x389;" horiz-adv-x="731" 
d="M583 705h57v-705h-57v284h-435v-284h-57v705h57v-369h435v369zM26 706l-177 -156h-48l160 162z" />
    <glyph glyph-name="Iotatonos" unicode="&#x38a;" horiz-adv-x="242" 
d="M151 705v-705h-59v705h59zM26 706l-177 -156h-48l160 162z" />
    <glyph glyph-name="Omicrontonos" unicode="&#x38c;" horiz-adv-x="854" 
d="M118 706l-177 -156h-48l160 162zM427 709q154 0 262.5 -104.5t108.5 -252.5t-108.5 -252t-262.5 -104t-263 104t-109 252t109 252.5t263 104.5zM427 51q129 0 220.5 88.5t91.5 212.5t-91.5 212.5t-220.5 88.5t-220.5 -88.5t-91.5 -212.5t91.5 -212.5t220.5 -88.5z" />
    <glyph glyph-name="Upsilontonos" unicode="&#x38e;" horiz-adv-x="658" 
d="M-14 706l-177 -156h-48l160 162zM569 705h68l-278 -462v-243h-59v243l-278 462h67l240 -401z" />
    <glyph glyph-name="Omegatonos" unicode="&#x38f;" horiz-adv-x="838" 
d="M782 363q0 -111 -59.5 -192.5t-140.5 -119.5h189v-51h-285v55q37 9 76.5 33.5t76.5 62t60.5 93.5t23.5 119q0 142 -85.5 218t-218.5 76t-219 -76t-86 -218q0 -63 23.5 -119t61 -93.5t77 -62t76.5 -33.5v-55h-285v51h187q-80 38 -139.5 119.5t-59.5 192.5
q0 169 102.5 257.5t261.5 88.5t261 -88.5t102 -257.5zM114 706l-177 -156h-48l160 162z" />
    <glyph glyph-name="iotadieresistonos" unicode="&#x390;" horiz-adv-x="225" 
d="M84 0v539h57v-539h-57zM-31 680q15 0 25 -10.5t10 -25.5t-10 -25t-25 -10t-25 10t-10 25t10 25.5t25 10.5zM260 680q15 0 25 -10.5t10 -25.5t-10 -25t-25 -10t-25 10t-10 25t10 25.5t25 10.5zM85 582l66 188l47 -9l-74 -179h-39z" />
    <glyph glyph-name="Alpha" unicode="&#x391;" horiz-adv-x="723" 
d="M639 0l-85 192h-386l-84 -192h-62l321 705h37l321 -705h-62zM361 627l-171 -386h343z" />
    <glyph glyph-name="Beta" unicode="&#x392;" horiz-adv-x="697" 
d="M512 564q0 -75 -53 -115q87 -9 139 -74.5t52 -151.5q0 -93 -56.5 -158t-156.5 -65h-346v705h263q66 0 112 -40.5t46 -100.5zM148 653v-199h221q45 0 66.5 31t21.5 68q0 43 -33.5 71.5t-84.5 28.5h-191zM148 52h266q84 0 129.5 50.5t45.5 124.5q0 73 -46 126.5t-128 53.5
h-267v-355z" />
    <glyph glyph-name="Gamma" unicode="&#x393;" horiz-adv-x="595" 
d="M553 705v-52h-404v-653h-58v705h462z" />
    <glyph glyph-name="uni0394" unicode="&#x394;" horiz-adv-x="722" 
d="M379 705l320 -705h-676l320 705h36zM360 625l-254 -574h509z" />
    <glyph glyph-name="Epsilon" unicode="&#x395;" 
d="M148 52h439v-52h-496v705h475v-52h-418v-285h356v-52h-356v-264z" />
    <glyph glyph-name="Zeta" unicode="&#x396;" horiz-adv-x="656" 
d="M603 705v-27l-468 -626h474v-52h-560v26l468 627h-442v52h528z" />
    <glyph glyph-name="Eta" unicode="&#x397;" horiz-adv-x="731" 
d="M583 705h57v-705h-57v284h-435v-284h-57v705h57v-369h435v369z" />
    <glyph glyph-name="Theta" unicode="&#x398;" horiz-adv-x="854" 
d="M427 709q154 0 262.5 -104.5t108.5 -252.5t-108.5 -252t-262.5 -104t-263 104t-109 252t109 252.5t263 104.5zM427 51q129 0 220.5 88.5t91.5 212.5t-91.5 212.5t-220.5 88.5t-220.5 -88.5t-91.5 -212.5t91.5 -212.5t220.5 -88.5zM194 328v50h465v-50h-465z" />
    <glyph glyph-name="Iota" unicode="&#x399;" horiz-adv-x="242" 
d="M151 705v-705h-59v705h59z" />
    <glyph glyph-name="Kappa" unicode="&#x39a;" horiz-adv-x="690" 
d="M326 363l323 -363h-79l-283 319l-139 -149v-170h-57v705h57v-452l419 452h73z" />
    <glyph glyph-name="Lambda" unicode="&#x39b;" horiz-adv-x="720" 
d="M378 705l318 -705h-61l-275 623l-275 -623h-61l318 705h36z" />
    <glyph glyph-name="Mu" unicode="&#x39c;" horiz-adv-x="873" 
d="M748 705h34v-705h-58v572l-288 -462l-287 462v-572h-58v705h33l312 -495z" />
    <glyph glyph-name="Nu" unicode="&#x39d;" horiz-adv-x="771" 
d="M622 705h58v-705h-34l-497 594v-594h-58v705h33l498 -595v595z" />
    <glyph glyph-name="Xi" unicode="&#x39e;" horiz-adv-x="679" 
d="M63 51h564v-51h-564v51zM618 705v-51h-546v51h546zM573 330h-456v49h456v-49z" />
    <glyph glyph-name="Omicron" unicode="&#x39f;" horiz-adv-x="854" 
d="M427 709q154 0 262.5 -104.5t108.5 -252.5t-108.5 -252t-262.5 -104t-263 104t-109 252t109 252.5t263 104.5zM427 51q129 0 220.5 88.5t91.5 212.5t-91.5 212.5t-220.5 88.5t-220.5 -88.5t-91.5 -212.5t91.5 -212.5t220.5 -88.5z" />
    <glyph glyph-name="Pi" unicode="&#x3a0;" horiz-adv-x="745" 
d="M91 705h564v-705h-57v654h-450v-654h-57v705z" />
    <glyph glyph-name="Rho" unicode="&#x3a1;" horiz-adv-x="649" 
d="M91 705h273q130 0 190.5 -65.5t60.5 -164.5q0 -126 -74.5 -185.5t-202.5 -59.5h-189v-230h-58v705zM149 281h185q103 0 161.5 48t58.5 143q0 78 -47.5 129.5t-149.5 51.5h-208v-372z" />
    <glyph glyph-name="Sigma" unicode="&#x3a3;" horiz-adv-x="648" 
d="M134 52h466v-52h-553v27l247 325l-244 326v27h548v-52h-463l226 -301z" />
    <glyph glyph-name="Tau" unicode="&#x3a4;" horiz-adv-x="660" 
d="M612 705v-52h-251v-653h-59v653h-249v52h559z" />
    <glyph glyph-name="Upsilon" unicode="&#x3a5;" horiz-adv-x="658" 
d="M569 705h68l-278 -462v-243h-59v243l-278 462h67l240 -401z" />
    <glyph glyph-name="Phi" unicode="&#x3a6;" horiz-adv-x="896" 
d="M841 363v-9q0 -84 -46.5 -153t-120 -106.5t-155.5 -37.5h-42v-57h-58v57h-42q-126 0 -224 84.5t-98 212.5v9q1 122 96.5 209t225.5 87h42v46h58v-46h42q130 0 225.5 -86.5t96.5 -209.5zM112 358q0 -108 79 -178t186 -70h42v496h-42q-109 0 -187 -72t-78 -176zM477 606
v-496h41q107 0 186.5 70t79.5 178q0 104 -78 176t-187 72h-42z" />
    <glyph glyph-name="Chi" unicode="&#x3a7;" horiz-adv-x="735" 
d="M370 398l261 307h68l-291 -352l293 -353h-69l-262 309l-261 -309h-69l292 353l-290 352h69z" />
    <glyph glyph-name="Psi" unicode="&#x3a8;" horiz-adv-x="863" 
d="M736 705h57v-258q0 -121 -89.5 -206.5t-208.5 -85.5h-35v-155h-58v155h-34q-119 0 -208.5 85.5t-89.5 206.5v258h57v-258q0 -100 71 -169.5t170 -69.5h34v497h58v-497h35q99 0 170 69.5t71 169.5v258z" />
    <glyph glyph-name="uni03A9" unicode="&#x3a9;" horiz-adv-x="838" 
d="M782 363q0 -111 -59.5 -192.5t-140.5 -119.5h189v-51h-285v55q37 9 76.5 33.5t76.5 62t60.5 93.5t23.5 119q0 142 -85.5 218t-218.5 76t-219 -76t-86 -218q0 -63 23.5 -119t61 -93.5t77 -62t76.5 -33.5v-55h-285v51h187q-80 38 -139.5 119.5t-59.5 192.5
q0 169 102.5 257.5t261.5 88.5t261 -88.5t102 -257.5z" />
    <glyph glyph-name="Iotadieresis" unicode="&#x3aa;" horiz-adv-x="242" 
d="M151 705v-705h-59v705h59zM203 858q15 0 25 -10.5t10 -25.5q0 -14 -10 -24.5t-25 -10.5t-25 10.5t-10 24.5q0 15 10 25.5t25 10.5zM41 858q15 0 25.5 -10.5t10.5 -25.5q0 -14 -10.5 -24.5t-25.5 -10.5q-14 0 -24.5 10.5t-10.5 24.5q0 15 10.5 25.5t24.5 10.5z" />
    <glyph glyph-name="Upsilondieresis" unicode="&#x3ab;" horiz-adv-x="658" 
d="M569 705h68l-278 -462v-243h-59v243l-278 462h67l240 -401zM411 858q15 0 25 -10.5t10 -25.5q0 -14 -10 -24.5t-25 -10.5t-25 10.5t-10 24.5q0 15 10 25.5t25 10.5zM249 858q15 0 25.5 -10.5t10.5 -25.5q0 -14 -10.5 -24.5t-25.5 -10.5q-14 0 -24.5 10.5t-10.5 24.5
q0 15 10.5 25.5t24.5 10.5z" />
    <glyph glyph-name="alphatonos" unicode="&#x3ac;" horiz-adv-x="669" 
d="M531 539h56v-539h-56v60q-82 -64 -202 -64q-116 0 -198 80t-82 197t82 197t198 80q122 0 202 -67v56zM531 118v307q-75 72 -195 72q-96 0 -163 -65t-67 -159q0 -95 67 -160t163 -65q122 0 195 70zM534 758l-177 -156h-48l160 162z" />
    <glyph glyph-name="epsilontonos" unicode="&#x3ad;" horiz-adv-x="586" 
d="M524 758l-177 -156h-48l160 162zM514 108l23 -41q-70 -37 -122.5 -54t-121.5 -17q-244 0 -244 155q0 41 28 76t77 50q-39 18 -62 52t-23 66q0 85 61 119.5t173 34.5q102 0 224 -63l-23 -40q-110 55 -196 55q-88 0 -136 -25t-48 -86q0 -30 31 -62t81 -32h150v-44h-170
q-47 0 -79 -30.5t-32 -66.5q0 -111 189 -111q61 0 107.5 15t112.5 49z" />
    <glyph glyph-name="etatonos" unicode="&#x3ae;" 
d="M336 549q106 0 169 -61.5t63 -178.5v-309h-56v309q0 90 -51 139t-132 49q-114 0 -191 -69v-428h-56v539h56v-58q74 68 198 68zM534 758l-177 -156h-48l160 162z" />
    <glyph glyph-name="iotatonos" unicode="&#x3af;" horiz-adv-x="225" 
d="M84 0v539h57v-539h-57zM312 758l-177 -156h-48l160 162z" />
    <glyph glyph-name="upsilondieresistonos" unicode="&#x3b0;" horiz-adv-x="632" 
d="M563 539v-320q0 -102 -72.5 -162.5t-174.5 -60.5q-61 0 -116 24t-93 76.5t-38 122.5v320h57v-312q0 -84 56 -132t134 -48q82 0 136 49t54 131v312h57zM172 687q15 0 25 -10.5t10 -25.5t-10 -25t-25 -10t-25 10t-10 25t10 25.5t25 10.5zM463 687q15 0 25 -10.5t10 -25.5
t-10 -25t-25 -10t-25 10t-10 25t10 25.5t25 10.5zM288 589l66 188l47 -9l-74 -179h-39z" />
    <glyph glyph-name="alpha" unicode="&#x3b1;" horiz-adv-x="669" 
d="M531 539h56v-539h-56v60q-82 -64 -202 -64q-116 0 -198 80t-82 197t82 197t198 80q122 0 202 -67v56zM531 118v307q-75 72 -195 72q-96 0 -163 -65t-67 -159q0 -95 67 -160t163 -65q122 0 195 70z" />
    <glyph glyph-name="beta" unicode="&#x3b2;" horiz-adv-x="640" 
d="M435 421q75 -19 116 -75.5t41 -121.5q0 -107 -69 -167.5t-173 -60.5q-129 0 -211 69v-234h-57v671q0 117 62.5 186t155.5 69q99 0 160.5 -49.5t61.5 -140.5q0 -103 -87 -146zM300 707q-71 0 -116 -53.5t-45 -143.5v-71h205q51 0 87 35.5t36 94.5q0 66 -46 102t-121 36z
M343 47q83 0 138 46.5t55 130.5q0 65 -49 116.5t-137 51.5h-211v-265q73 -80 204 -80z" />
    <glyph glyph-name="gamma" unicode="&#x3b3;" horiz-adv-x="607" 
d="M521 539h60l-249 -538v-170h-57v171l-250 537h60l218 -461z" />
    <glyph glyph-name="delta" unicode="&#x3b4;" horiz-adv-x="680" 
d="M558 705h-341q271 -209 289 -226q74 -69 100 -119t26 -108q0 -105 -86 -180.5t-206 -75.5q-121 0 -207.5 76.5t-86.5 182.5q0 72 43.5 130.5t107 87.5t129.5 29q50 0 107 -20l-325 245v27h450v-49zM340 48q98 0 167.5 61t69.5 146q0 82 -70 140.5t-167 58.5
q-98 0 -168 -58.5t-70 -140.5q0 -85 70 -146t168 -61z" />
    <glyph glyph-name="epsilon" unicode="&#x3b5;" horiz-adv-x="586" 
d="M514 108l23 -41q-70 -37 -122.5 -54t-121.5 -17q-244 0 -244 155q0 41 28 76t77 50q-39 18 -62 52t-23 66q0 85 61 119.5t173 34.5q102 0 224 -63l-23 -40q-110 55 -196 55q-88 0 -136 -25t-48 -86q0 -30 31 -62t81 -32h150v-44h-170q-47 0 -79 -30.5t-32 -66.5
q0 -111 189 -111q61 0 107.5 15t112.5 49z" />
    <glyph glyph-name="zeta" unicode="&#x3b6;" horiz-adv-x="514" 
d="M507 754v-32q-75 -62 -132 -114t-125.5 -123t-107 -137t-38.5 -118q0 -35 28.5 -59t71.5 -34.5t92.5 -22t92.5 -23.5t71.5 -38.5t28.5 -65.5q0 -29 -17 -56.5t-41 -45.5t-51.5 -33.5t-45 -22.5t-26.5 -9l-20 37q56 22 99.5 54.5t43.5 71.5q0 32 -39.5 51t-96 30.5
t-113.5 26.5t-96.5 49t-39.5 87q0 178 372 478h-367v49h456z" />
    <glyph glyph-name="eta" unicode="&#x3b7;" 
d="M336 549q106 0 169 -61.5t63 -178.5v-309h-56v309q0 90 -51 139t-132 49q-114 0 -191 -69v-428h-56v539h56v-58q74 68 198 68z" />
    <glyph glyph-name="theta" unicode="&#x3b8;" horiz-adv-x="657" 
d="M329 757q120 0 200 -105t80 -280q0 -174 -80 -275t-200 -101t-199.5 101t-79.5 275q0 175 80 280t199 105zM329 45q95 0 158.5 83.5t66.5 219.5q-448 0 -449 -1q1 -137 65.5 -219.5t158.5 -82.5zM329 708q-94 0 -158 -87.5t-66 -223.5h449q-2 138 -67 224.5t-158 86.5z
" />
    <glyph glyph-name="iota" unicode="&#x3b9;" horiz-adv-x="225" 
d="M84 0v539h57v-539h-57z" />
    <glyph glyph-name="kappa" unicode="&#x3ba;" horiz-adv-x="611" 
d="M372 333l214 -333h-64l-189 290l-194 -180v-110h-57v539h57v-353l375 353h72z" />
    <glyph glyph-name="lambda" unicode="&#x3bb;" horiz-adv-x="612" 
d="M365 595l226 -595h-61l-189 512l-32 -27l-213 -485h-62l245 537l41 33q-24 68 -86 102t-135 34h-24v48h26q89 0 161.5 -40t102.5 -119z" />
    <glyph glyph-name="uni03BC" unicode="&#x3bc;" horiz-adv-x="659" 
d="M520 539h56v-539h-56v63q-75 -67 -202 -67q-60 0 -107.5 26t-72.5 75v-266h-56v709h56v-304q0 -90 51 -139t132 -49q119 0 199 69v422z" />
    <glyph glyph-name="nu" unicode="&#x3bd;" horiz-adv-x="609" 
d="M522 539h62l-264 -539h-30l-265 539h62l218 -446z" />
    <glyph glyph-name="xi" unicode="&#x3be;" horiz-adv-x="511" 
d="M479 754v-42q-166 -3 -247.5 -49.5t-81.5 -111.5q0 -48 41 -83t104 -51t139 -16v-44q-145 -2 -236.5 -40t-91.5 -100q0 -47 38 -74t93 -38t109.5 -21.5t92.5 -35t38 -68.5q0 -33 -21 -63t-52 -49.5t-53 -30t-36 -14.5l-28 36q48 16 89.5 48t41.5 68q0 29 -38 45t-92.5 26
t-109.5 25t-93 51.5t-38 94.5q0 62 58 105.5t157 62.5q-77 20 -123 61.5t-46 102.5q0 110 143 156h-201v49h444z" />
    <glyph glyph-name="omicron" unicode="&#x3bf;" horiz-adv-x="683" 
d="M341 549q122 0 208 -81t86 -196t-86 -195.5t-208 -80.5q-121 0 -207 80.5t-86 195.5t86 196t207 81zM341 48q98 0 168 65.5t70 158.5q0 94 -70 159.5t-168 65.5t-167.5 -65.5t-69.5 -159.5q0 -93 69.5 -158.5t167.5 -65.5z" />
    <glyph glyph-name="pi" unicode="&#x3c0;" horiz-adv-x="667" 
d="M82 539h503v-539h-58v489h-388v-489h-57v539z" />
    <glyph glyph-name="rho" unicode="&#x3c1;" horiz-adv-x="655" 
d="M323 549q118 0 201 -79.5t83 -197.5q0 -117 -82 -196.5t-198 -79.5q-120 0 -201 62v-227h-57v481q0 99 74.5 168t179.5 69zM320 48q97 0 164 64.5t67 159.5t-67 160t-164 65q-77 0 -135.5 -52t-58.5 -129v-198q72 -70 194 -70z" />
    <glyph glyph-name="uni03C2" unicode="&#x3c2;" horiz-adv-x="566" 
d="M353 47q59 -21 92.5 -45.5t33.5 -65.5q0 -44 -38 -76.5t-90 -50.5q-14 24 -22 34q94 49 94 89q0 18 -16 32t-30 19.5t-50 18.5q-47 16 -81.5 31t-74 39.5t-64.5 52t-42 68t-17 87.5q0 112 85.5 190.5t200.5 78.5q62 0 116 -26t90 -74q-4 -4 -19.5 -17.5t-19.5 -17.5
q-64 83 -167 83q-93 0 -161.5 -63.5t-68.5 -153.5q0 -41 15.5 -75.5t37 -56.5t59.5 -43t65 -31.5t72 -26.5z" />
    <glyph glyph-name="sigma" unicode="&#x3c3;" horiz-adv-x="685" 
d="M649 539v-49h-159q63 -27 103 -84.5t40 -137.5q0 -112 -85.5 -192t-206.5 -80t-207 80.5t-86 195.5q0 111 86 189t207 78h308zM341 48q98 0 168 65.5t70 158.5q0 90 -70 153.5t-168 63.5t-167.5 -63.5t-69.5 -153.5q0 -93 69.5 -158.5t167.5 -65.5z" />
    <glyph glyph-name="tau" unicode="&#x3c4;" horiz-adv-x="527" 
d="M499 539v-49h-206v-490h-57v490h-208v49h471z" />
    <glyph glyph-name="upsilon" unicode="&#x3c5;" horiz-adv-x="632" 
d="M563 539v-320q0 -102 -72.5 -162.5t-174.5 -60.5q-61 0 -116 24t-93 76.5t-38 122.5v320h57v-312q0 -84 56 -132t134 -48q82 0 136 49t54 131v312h57z" />
    <glyph glyph-name="phi" unicode="&#x3c6;" horiz-adv-x="822" 
d="M775 267q0 -121 -100 -196t-237 -75v-165h-54v165q-137 0 -236.5 75t-99.5 196q0 88 54 158.5t143 106.5l19 -45q-74 -29 -117 -87.5t-43 -131.5q0 -97 79 -160.5t195 -63.5h6v504q15 3 46 3q70 0 130 -16t109 -48.5t77.5 -89t28.5 -130.5zM438 502v-458h6
q117 0 195.5 63.5t78.5 160.5q0 116 -78 175t-198 59h-4z" />
    <glyph glyph-name="chi" unicode="&#x3c7;" horiz-adv-x="581" 
d="M293 225l-196 -225h-66l228 271l-227 268h67l194 -225l193 225h67l-227 -268l228 -271h-66z" />
    <glyph glyph-name="psi" unicode="&#x3c8;" horiz-adv-x="805" 
d="M679 539h57v-320q0 -110 -77.5 -166.5t-228.5 -56.5v-165h-55v165q-151 0 -228.5 57t-77.5 166v320h57v-312q0 -178 239 -180h10v563h55v-563h10q239 0 239 180v312z" />
    <glyph glyph-name="omega" unicode="&#x3c9;" horiz-adv-x="891" 
d="M599 495l3 53q105 -8 173 -82t68 -194q0 -128 -62.5 -202t-172.5 -74q-56 0 -99.5 33t-63.5 84q-20 -51 -63.5 -84t-99.5 -33q-110 0 -172 74t-62 202q0 120 68 194t173 82l3 -53q-83 -9 -135.5 -69t-52.5 -154q0 -104 47.5 -164t133.5 -60q56 0 94.5 46.5t38.5 105.5
v133h55v-133q0 -59 38.5 -105.5t94.5 -46.5q86 0 133 60t47 164q0 94 -52.5 154t-134.5 69z" />
    <glyph glyph-name="iotadieresis" unicode="&#x3ca;" horiz-adv-x="225" 
d="M84 0v539h57v-539h-57zM194 694q15 0 25 -10.5t10 -25.5q0 -14 -10 -24.5t-25 -10.5t-25 10.5t-10 24.5q0 15 10 25.5t25 10.5zM32 694q15 0 25.5 -10.5t10.5 -25.5q0 -14 -10.5 -24.5t-25.5 -10.5q-14 0 -24.5 10.5t-10.5 24.5q0 15 10.5 25.5t24.5 10.5z" />
    <glyph glyph-name="upsilondieresis" unicode="&#x3cb;" horiz-adv-x="632" 
d="M563 539v-320q0 -102 -72.5 -162.5t-174.5 -60.5q-61 0 -116 24t-93 76.5t-38 122.5v320h57v-312q0 -84 56 -132t134 -48q82 0 136 49t54 131v312h57zM392 694q15 0 25 -10.5t10 -25.5q0 -14 -10 -24.5t-25 -10.5t-25 10.5t-10 24.5q0 15 10 25.5t25 10.5zM230 694
q15 0 25.5 -10.5t10.5 -25.5q0 -14 -10.5 -24.5t-25.5 -10.5q-14 0 -24.5 10.5t-10.5 24.5q0 15 10.5 25.5t24.5 10.5z" />
    <glyph glyph-name="omicrontonos" unicode="&#x3cc;" horiz-adv-x="683" 
d="M535 758l-177 -156h-48l160 162zM341 549q122 0 208 -81t86 -196t-86 -195.5t-208 -80.5q-121 0 -207 80.5t-86 195.5t86 196t207 81zM341 48q98 0 168 65.5t70 158.5q0 94 -70 159.5t-168 65.5t-167.5 -65.5t-69.5 -159.5q0 -93 69.5 -158.5t167.5 -65.5z" />
    <glyph glyph-name="upsilontonos" unicode="&#x3cd;" horiz-adv-x="632" 
d="M513 758l-177 -156h-48l160 162zM563 539v-320q0 -102 -72.5 -162.5t-174.5 -60.5q-61 0 -116 24t-93 76.5t-38 122.5v320h57v-312q0 -84 56 -132t134 -48q82 0 136 49t54 131v312h57z" />
    <glyph glyph-name="omegatonos" unicode="&#x3ce;" horiz-adv-x="891" 
d="M599 495l3 53q105 -8 173 -82t68 -194q0 -128 -62.5 -202t-172.5 -74q-56 0 -99.5 33t-63.5 84q-20 -51 -63.5 -84t-99.5 -33q-110 0 -172 74t-62 202q0 120 68 194t173 82l3 -53q-83 -9 -135.5 -69t-52.5 -154q0 -104 47.5 -164t133.5 -60q56 0 94.5 46.5t38.5 105.5
v133h55v-133q0 -59 38.5 -105.5t94.5 -46.5q86 0 133 60t47 164q0 94 -52.5 154t-134.5 69zM645 758l-177 -156h-48l160 162z" />
    <glyph glyph-name="Wgrave" unicode="&#x1e80;" horiz-adv-x="1117" 
d="M1078 705l-269 -705h-29l-226 604l-226 -604h-29l-269 705h63l222 -595l223 595h32l222 -595l223 595h63zM532 757l-169 153l66 6l148 -159h-45z" />
    <glyph glyph-name="wgrave" unicode="&#x1e81;" horiz-adv-x="851" 
d="M775 539h58l-209 -539h-35l-164 447l-163 -447h-35l-209 539h58l172 -443l160 443h34l162 -443zM401 597l-169 153l66 6l148 -159h-45z" />
    <glyph glyph-name="Wacute" unicode="&#x1e82;" horiz-adv-x="1117" 
d="M1078 705l-269 -705h-29l-226 604l-226 -604h-29l-269 705h63l222 -595l223 595h32l222 -595l223 595h63zM747 910l-169 -153h-45l148 159z" />
    <glyph glyph-name="wacute" unicode="&#x1e83;" horiz-adv-x="851" 
d="M775 539h58l-209 -539h-35l-164 447l-163 -447h-35l-209 539h58l172 -443l160 443h34l162 -443zM622 750l-169 -153h-45l148 159z" />
    <glyph glyph-name="Wdieresis" unicode="&#x1e84;" horiz-adv-x="1117" 
d="M1078 705l-269 -705h-29l-226 604l-226 -604h-29l-269 705h63l222 -595l223 595h32l222 -595l223 595h63zM634 845q15 0 25 -10.5t10 -25.5q0 -14 -10 -24.5t-25 -10.5t-25 10.5t-10 24.5q0 15 10 25.5t25 10.5zM472 845q15 0 25.5 -10.5t10.5 -25.5q0 -14 -10.5 -24.5
t-25.5 -10.5q-14 0 -24.5 10.5t-10.5 24.5q0 15 10.5 25.5t24.5 10.5z" />
    <glyph glyph-name="wdieresis" unicode="&#x1e85;" horiz-adv-x="851" 
d="M775 539h58l-209 -539h-35l-164 447l-163 -447h-35l-209 539h58l172 -443l160 443h34l162 -443zM507 685q15 0 25 -10.5t10 -25.5q0 -14 -10 -24.5t-25 -10.5t-25 10.5t-10 24.5q0 15 10 25.5t25 10.5zM345 685q15 0 25.5 -10.5t10.5 -25.5q0 -14 -10.5 -24.5
t-25.5 -10.5q-14 0 -24.5 10.5t-10.5 24.5q0 15 10.5 25.5t24.5 10.5z" />
    <glyph glyph-name="Ygrave" unicode="&#x1ef2;" horiz-adv-x="658" 
d="M569 705h68l-278 -462v-243h-59v243l-278 462h67l240 -401zM299 757l-169 153l66 6l148 -159h-45z" />
    <glyph glyph-name="ygrave" unicode="&#x1ef3;" horiz-adv-x="610" 
d="M516 539h60l-228 -568q-26 -65 -84.5 -103.5t-130.5 -48.5q-31 -4 -90 -4l5 47h12q189 0 240 138h-27l-242 539h61l214 -473h22zM292 606l-169 153l66 6l148 -159h-45z" />
    <glyph glyph-name="endash" unicode="&#x2013;" horiz-adv-x="528" 
d="M480 356v-49h-432v49h432z" />
    <glyph glyph-name="emdash" unicode="&#x2014;" horiz-adv-x="898" 
d="M848 356v-49h-800v49h800z" />
    <glyph glyph-name="quoteleft" unicode="&#x2018;" horiz-adv-x="194" 
d="M95 529q-40 0 -40 59q0 48 29.5 82.5t84.5 34.5l9 -26q-80 -4 -81 -75q14 -1 24 -11.5t10 -25.5q0 -16 -11 -27t-25 -11z" />
    <glyph glyph-name="quoteright" unicode="&#x2019;" horiz-adv-x="181" 
d="M107 705q40 0 40 -59q0 -48 -29.5 -82.5t-85.5 -34.5l-9 26q80 2 81 74q-14 2 -23.5 12.5t-9.5 25.5q0 16 11 27t25 11z" />
    <glyph glyph-name="quotesinglbase" unicode="&#x201a;" horiz-adv-x="198" 
d="M95 76q40 0 40 -60q0 -48 -29.5 -82.5t-85.5 -34.5l-9 26q80 4 81 75q-14 2 -23.5 12.5t-9.5 25.5q0 16 11 27t25 11z" />
    <glyph glyph-name="quotedblleft" unicode="&#x201c;" horiz-adv-x="345" 
d="M241 528q-40 0 -40 59q0 48 29.5 82.5t84.5 34.5l9 -26q-80 -2 -81 -74q14 -2 24 -12.5t10 -25.5q0 -16 -11 -27t-25 -11zM86 528q-40 0 -40 59q0 48 29.5 82.5t84.5 34.5l9 -26q-78 -2 -81 -74q15 -1 24.5 -12t9.5 -26q0 -16 -11 -27t-25 -11z" />
    <glyph glyph-name="quotedblright" unicode="&#x201d;" horiz-adv-x="338" 
d="M108 705q40 0 40 -59q0 -48 -29.5 -82.5t-84.5 -34.5l-9 26q80 2 81 74q-14 2 -24 12.5t-10 25.5q0 16 11 27t25 11zM263 705q40 0 40 -59q0 -48 -29.5 -82.5t-84.5 -34.5l-9 26q78 2 81 74q-15 1 -24.5 12t-9.5 26q0 16 11 27t25 11z" />
    <glyph glyph-name="quotedblbase" unicode="&#x201e;" horiz-adv-x="339" 
d="M97 76q40 0 40 -60q0 -48 -29.5 -82.5t-84.5 -34.5l-9 26q80 4 81 75q-14 2 -24 12.5t-10 25.5t11 26.5t25 11.5zM252 76q40 0 40 -60q0 -48 -29.5 -82.5t-84.5 -34.5l-9 26q80 4 81 75q-14 2 -24 12.5t-10 25.5q0 16 11 27t25 11z" />
    <glyph glyph-name="dagger" unicode="&#x2020;" horiz-adv-x="410" 
d="M361 583v-43l-117 5h-22v-124l5 -156h-40l4 156l-1 124h-25l-115 -5v43l115 -5h24l-1 114h39l-4 -114h21z" />
    <glyph glyph-name="daggerdbl" unicode="&#x2021;" horiz-adv-x="430" 
d="M232 258v-111h22l117 5v-42l-117 4h-21l4 -114h-39l1 114h-24l-115 -5v43l115 -5h25l1 111l-1 93l1 84l-1 111h-25l-115 -5v43l115 -5h24l-2 114h40l-4 -114h21l117 5v-43l-116 5h-23v-111l1 -84z" />
    <glyph glyph-name="bullet" unicode="&#x2022;" horiz-adv-x="387" 
d="M298 352q0 -44 -30.5 -74.5t-74.5 -30.5t-74.5 30.5t-30.5 74.5q0 43 30.5 73.5t74.5 30.5t74.5 -30.5t30.5 -73.5z" />
    <glyph glyph-name="ellipsis" unicode="&#x2026;" horiz-adv-x="544" 
d="M78 75q16 0 27.5 -11.5t11.5 -28.5t-11.5 -28t-27.5 -11t-27.5 11t-11.5 28t11.5 28.5t27.5 11.5zM267 75q16 0 27.5 -12t11.5 -28t-11.5 -27.5t-27.5 -11.5q-17 0 -28.5 11.5t-11.5 27.5q0 17 11.5 28.5t28.5 11.5zM459 75q16 0 27.5 -11.5t11.5 -28.5t-11 -28t-28 -11
q-16 0 -27.5 11.5t-11.5 27.5t11.5 28t27.5 12z" />
    <glyph glyph-name="perthousand" unicode="&#x2030;" horiz-adv-x="1277" 
d="M384 516q0 -89 -50.5 -141t-125.5 -52t-125 52t-50 141t50 141t125 52q76 0 126 -52t50 -141zM75 516q0 -69 38.5 -110.5t94.5 -41.5q57 0 95.5 41.5t38.5 110.5t-38.5 110.5t-95.5 41.5t-95 -41.5t-38 -110.5zM664 382q76 0 126 -52t50 -141t-50.5 -141t-125.5 -52
t-125 52t-50 141t50 141t125 52zM664 37q57 0 95.5 41.5t38.5 110.5t-38.5 110.5t-95.5 41.5t-95 -41.5t-38 -110.5t38.5 -110.5t94.5 -41.5zM1059 382q75 0 125 -52t50 -141t-50 -141t-125 -52t-125.5 52t-50.5 141t50 141t126 52zM1059 37q56 0 94.5 41.5t38.5 110.5
t-38 110.5t-95 41.5t-95.5 -41.5t-38.5 -110.5t38.5 -110.5t95.5 -41.5zM655 701h47l-483 -701h-47z" />
    <glyph glyph-name="guilsinglleft" unicode="&#x2039;" horiz-adv-x="299" 
d="M206 9l-174 257l174 257l38 -28l-158 -229l158 -229z" />
    <glyph glyph-name="guilsinglright" unicode="&#x203a;" horiz-adv-x="281" 
d="M71 523l174 -257l-174 -257l-38 28l158 229l-158 229z" />
    <glyph glyph-name="fraction" unicode="&#x2044;" horiz-adv-x="447" 
d="M449 701h47l-483 -701h-47z" />
    <glyph glyph-name="Euro" unicode="&#x20ac;" horiz-adv-x="704" 
d="M426 51q129 0 213 111l42 -35q-45 -61 -112 -96t-143 -35q-115 0 -203 75t-114 194h-70v37h64q-3 24 -3 49q0 24 3 48h-64v36h70q25 120 113 196t204 76q76 0 143 -35t112 -97l-42 -35q-84 111 -213 111q-91 0 -161.5 -61t-93.5 -155h292v-36h-300q-4 -21 -4 -48
q0 -28 4 -49h300v-37h-292q24 -93 94.5 -153.5t160.5 -60.5z" />
    <glyph glyph-name="uni2117" unicode="&#x2117;" horiz-adv-x="865" 
 />
    <glyph glyph-name="trademark" unicode="&#x2122;" horiz-adv-x="695" 
d="M287 699v-32h-118v-280h-34v280h-119v32h271zM649 699h15v-312h-34v232l-130 -185l-130 185v-232h-34v312h15l149 -210z" />
    <glyph glyph-name="Omega" unicode="&#x2126;" horiz-adv-x="838" 
d="M782 363q0 -111 -59.5 -192.5t-140.5 -119.5h189v-51h-285v55q37 9 76.5 33.5t76.5 62t60.5 93.5t23.5 119q0 142 -85.5 218t-218.5 76t-219 -76t-86 -218q0 -63 23.5 -119t61 -93.5t77 -62t76.5 -33.5v-55h-285v51h187q-80 38 -139.5 119.5t-59.5 192.5
q0 169 102.5 257.5t261.5 88.5t261 -88.5t102 -257.5z" />
    <glyph glyph-name="partialdiff" unicode="&#x2202;" horiz-adv-x="662" 
d="M321 453q85 0 152.5 -30.5t84.5 -88.5q0 3 1 9.5t0 11.5q-10 157 -76 229.5t-170 72.5q-112 0 -189 -28l-26 46q85 34 225 34q127 0 209 -100.5t82 -311.5q0 -137 -78 -219.5t-195 -82.5q-124 0 -207.5 64.5t-83.5 170.5t79 164.5t192 58.5zM333 402q-97 0 -161.5 -45
t-64.5 -126q0 -82 67.5 -134t166.5 -52q80 0 143.5 58.5t63.5 130.5q0 77 -63.5 122.5t-151.5 45.5z" />
    <glyph glyph-name="Delta" unicode="&#x2206;" horiz-adv-x="722" 
d="M379 705l320 -705h-676l320 705h36zM360 625l-254 -574h509z" />
    <glyph glyph-name="product" unicode="&#x220f;" horiz-adv-x="735" 
d="M87 -161v866h564v-866h-57v815h-450v-815h-57z" />
    <glyph glyph-name="summation" unicode="&#x2211;" horiz-adv-x="660" 
d="M67 705h548v-52h-465l240 -380l-239 -382h464v-52h-548v27l256 407l-256 405v27z" />
    <glyph glyph-name="minus" unicode="&#x2212;" horiz-adv-x="528" 
d="M471 356v-49h-416v49h416z" />
    <glyph glyph-name="radical" unicode="&#x221a;" horiz-adv-x="799" 
d="M444 88l390 827h57l-432 -915h-34l-259 557h-130v50h170z" />
    <glyph glyph-name="infinity" unicode="&#x221e;" horiz-adv-x="862" 
d="M794 365q0 -82 -50 -127.5t-128 -45.5q-57 0 -100.5 32.5t-88.5 102.5q-44 -68 -88.5 -101.5t-100.5 -33.5q-78 0 -128 46t-50 127q0 83 50 128.5t128 45.5q56 0 100.5 -34t88.5 -102q46 71 89 103.5t100 32.5q78 0 128 -46t50 -128zM612 238q60 0 97.5 32.5t37.5 94.5
q0 63 -37.5 95.5t-97.5 32.5q-48 0 -84 -30.5t-77 -97.5q40 -67 76.5 -97t84.5 -30zM242 238q47 0 84.5 32t76.5 95q-39 64 -76.5 96t-84.5 32q-60 0 -97.5 -32.5t-37.5 -95.5q0 -62 37.5 -94.5t97.5 -32.5z" />
    <glyph glyph-name="integral" unicode="&#x222b;" horiz-adv-x="328" 
d="M332 745l-5 -45q-27 0 -45 -6.5t-29 -15.5t-19 -32.5t-11.5 -41t-9.5 -58.5l-78 -490q-24 -146 -50 -192t-98 -46q-4 0 -12 0.5t-13 0.5l5 47h9q51 0 67.5 30t30.5 121l82 522q6 42 12 70t16 56.5t23 45t32 26.5t44 10z" />
    <glyph glyph-name="approxequal" unicode="&#x2248;" horiz-adv-x="626" 
d="M446 191q57 0 117 54l16 -46q-63 -59 -132 -59q-39 0 -114 27t-118 27q-74 0 -134 -43l-16 44q68 51 149 51q51 0 121.5 -27.5t110.5 -27.5zM446 481q57 0 117 54l16 -46q-65 -59 -132 -59q-39 0 -114 27.5t-118 27.5q-76 0 -134 -44l-16 44q68 51 149 51
q51 0 121.5 -27.5t110.5 -27.5z" />
    <glyph glyph-name="notequal" unicode="&#x2260;" horiz-adv-x="639" 
d="M183 45h-46l65 127h-121v49h146l125 241h-271v49h296l64 124h45l-63 -124h133v-49h-158l-125 -241h283v-49h-308z" />
    <glyph glyph-name="lessequal" unicode="&#x2264;" horiz-adv-x="628" 
d="M554 49v-49h-481v49h481zM554 664v-55l-405 -196l405 -196v-54l-481 235v30z" />
    <glyph glyph-name="greaterequal" unicode="&#x2265;" horiz-adv-x="627" 
d="M554 49v-49h-481v49h481zM73 163v54l405 196l-405 196v55l481 -236v-30z" />
    <glyph glyph-name="lozenge" unicode="&#x25ca;" horiz-adv-x="473" 
d="M219 754h25l187 -377l-187 -377h-25l-186 377zM87 377l145 -292l145 292l-145 292z" />
    <glyph glyph-name="NULL" horiz-adv-x="0" 
 />
    <glyph glyph-name="CR" horiz-adv-x="277" 
 />
    <glyph glyph-name="intelligentdesign" horiz-adv-x="967" 
d="M652 619q51 -20 82.5 -66.5t31.5 -102.5q0 -57 -31.5 -103t-82.5 -67q-21 -51 -67 -82.5t-103 -31.5t-103 31.5t-67 82.5q-51 21 -82.5 67t-31.5 103q0 56 31.5 102.5t82.5 66.5q21 51 67 82.5t103 31.5t103 -31.5t67 -82.5zM504 471h112q0 48 -32 85.5t-80 45.5v-131z
M504 428v-131q48 9 80 46t32 85h-112zM461 294v134h-69v-134h69zM461 471v134h-69v-134h69zM286 111q20 0 33.5 -13t13.5 -32t-14 -32.5t-33 -13.5t-33 13.5t-14 32.5t13.5 32t33.5 13zM678 48q5 -5 15 -10l-9 -21q-18 7 -32 24h-15v-19h-24v88h41q36 0 36 -34
q0 -19 -12 -28zM604 66q0 -18 -12 -31t-29 -13h-33v88h30q19 0 31.5 -13t12.5 -31zM492 64v46h24v-88h-11l-47 45v-45h-24v88h11zM398 109h24v-52q0 -16 -12 -26.5t-29 -10.5q-16 0 -28.5 10.5t-12.5 26.5v52h24v-46q0 -21 17 -21t17 21v46zM732 77l18 32h27l-33 -58v-29
h-24v29l-33 58h27zM234 110v-20h-18v-32h17v-17h-17v-19h-24v19h-5v17h5v52h42zM286 42q9 0 15.5 7t6.5 17t-6.5 16.5t-15.5 6.5q-10 0 -16.5 -6.5t-6.5 -16.5t6.5 -17t16.5 -7zM650 -134q0 -9 -6.5 -15t-14.5 -6h-12v42h12q9 0 15 -6.5t6 -14.5zM554 43h7q8 0 13.5 6.5
t5.5 16.5q0 9 -6 15.5t-14 6.5h-6v-45zM907 -144l10 -11h-6l-8 9h-10v-9h-4v42h11q7 0 11.5 -5t4.5 -11q0 -11 -9 -15zM650 90h-13v-32h11q17 1 17 16q0 16 -15 16zM629 -151q7 0 12 5t5 12t-5 12t-12 5h-8v-34h8zM145 -149l12 37h4l-14 -42h-4l-9 35l-8 -35h-4l-14 42h4
l12 -37l8 37h4zM207 -149l12 37h4l-14 -42h-4l-9 35l-8 -35h-4l-14 42h4l12 -37l8 37h4zM85 -149l12 37h4l-14 -42h-4l-9 35l-8 -35h-4l-14 42h4l12 -37l8 37h4zM566 -148v35h4v-42h-4l-25 36v-36h-4v42h4zM819 -148v35h4v-42h-4l-25 36v-36h-4v42h4zM288 -148v35h4v-42h-4
l-25 36v-36h-4v42h4zM479 -142v4h14v-11q-6 -6 -16 -6t-16 6t-6 15t6.5 15.5t14.5 6.5q9 0 16 -7l-3 -3q-5 6 -13 6q-7 0 -12 -5.5t-5 -12.5t5.5 -12t12.5 -5l12 4v5h-10zM766 -142v4h14v-11q-6 -6 -16 -6t-16 6t-6 15t6.5 15.5t14.5 6.5q9 0 16 -7l-3 -3q-5 6 -13 6
q-7 0 -12 -5.5t-5 -12.5t5.5 -12t12.5 -5l12 4v5h-10zM866 -142v4h14v-11q-6 -6 -16 -6t-16 6t-6 15t6.5 15.5t14.5 6.5q9 0 16 -7l-3 -3q-4 6 -13 6q-7 0 -12 -5.5t-5 -12.5t5.5 -12t12.5 -5l12 4v5h-10zM341 -113h26v-4h-22v-18h20v-4h-20v-12h22v-4h-26v42zM659 -113h26
v-4h-22v-18h20v-4h-20v-12h22v-4h-26v42zM502 -113h26v-4h-22v-18h20v-4h-20v-12h22v-4h-26v42zM893 -142h7q12 2 12 13q0 12 -12 12h-7v-25zM708 -131q11 -4 11 -12q0 -12 -12 -12q-11 0 -15 9l3 2q3 -7 12 -7q8 0 8 8q0 5 -8 8q-12 5 -12 12q0 11 11 11q8 0 11 -7l-3 -2
q-3 5 -8 5q-7 0 -7 -7q0 -5 9 -8zM314 -117h-13v4h30v-4h-13v-38h-4v38zM591 -117h-13v4h30v-4h-13v-38h-4v38zM409 -113h4v-38h20v-4h-24v42zM376 -113h4v-38h20v-4h-24v42zM244 -113h4v-42h-4v42zM442 -113h4v-42h-4v42zM729 -113h4v-42h-4v42zM225 -152q0 4 4 4t4 -4
t-4 -4t-4 4zM830 -152q0 4 4 4t4 -4t-4 -4t-4 4z" />
    </font>
</defs>
</svg>
